Syndromeda - The Alien Abduction Phenomenon (2001)


Syndromeda - The Alien Abduction Phenomenon (2001)
EAC Rip | FLAC (image+.cue+log) - 399 MB | MP3 CBR 320 kbps (LAME 3.93) - 167 MB | Covers - 30 MB
Genre: Electronic, Berlin School | RAR 3% Rec. | Label: Neu Harmony/Groove Unlimited (NH017, GR-055)

The Alien Abduction Phenomenon features Syndromeda, nee Danny Budts, doing what he does best. This densely atmospheric and heavily sequenced CD is another sci-fi soundscape with massive walls of sound and expansive passages of dark minimalism. Danny weaves a tale of space exploration and the unknown dangers therein. Deep listeners will take the journey as well, carried by the rhythm. The rhythm is either overt (sequenced) or self-generated (minimal). It is always there. A deep synth drone provides continuity for the thematic integrity as listeners explore the mystic worlds of abduction. The dark minimalism forebodes mystery and, perhaps, danger lurking in the shadows. This is an early in 2001’s top ten!
Tracklist:
01. The Chosen One
02. No More Fear
03. Mystic Cave
04. After The Abduction
05. A New Start
06. Wavegames

Total time: 01:10:58

Exact Audio Copy V1.0 beta 1 from 15. November 2010

EAC extraction logfile from 23. May 2011, 12:50

Syndromeda / The Alien Abduction Phenomenon

Used drive : PIONEER DVD-RW DVR-215D Adapter: 5 ID: 0

Read mode : Secure
Utilize accurate stream : Yes
Defeat audio cache : Yes
Make use of C2 pointers : No

Read offset correction : 48
Overread into Lead-In and Lead-Out : No
Fill up missing offset samples with silence : Yes
Delete leading and trailing silent blocks : No
Null samples used in CRC calculations : Yes
Used interface : Installed external ASPI interface

Used output format : Internal WAV Routines
Sample format : 44.100 Hz; 16 Bit; Stereo


TOC of the extracted CD

Track | Start | Length | Start sector | End sector
––––––––––––––––––––––––––––-
1 | 0:00.00 | 5:35.67 | 0 | 25191
2 | 5:35.67 | 19:12.55 | 25192 | 111646
3 | 24:48.47 | 13:47.62 | 111647 | 173733
4 | 38:36.34 | 8:12.36 | 173734 | 210669
5 | 46:48.70 | 14:15.07 | 210670 | 274801
6 | 61:04.02 | 9:54.19 | 274802 | 319370


Range status and errors

Selected range

Filename C:Remember The Old SequenceSyndromeda - The Alien Abduction Phenomenon.wav

Peak level 96.5 %
Extraction speed 0.4 X
Range quality 100.0 %
Test CRC 68E2E25C
Copy CRC 68E2E25C
Copy OK

No errors occurred


AccurateRip summary

Track 1 accurately ripped (confidence 4) [AF241802]
Track 2 accurately ripped (confidence 4) [15D82748]
Track 3 accurately ripped (confidence 4) [CB454361]
Track 4 accurately ripped (confidence 4) [4A25C756]
Track 5 accurately ripped (confidence 4) [7AFD2CCC]
Track 6 accurately ripped (confidence 4) [216BC25B]

All tracks accurately ripped

End of status report

==== Log checksum 709E36650BEC703E776D3B7D67723CA9E46D043CCAAA291A6DD2164ADF4063BE ====

[CUETools log; Date: 02.02.2016 21:32:29; Version: 2.1.4]
[CTDB TOCID: Drouap9cbwapNrscRO_vqI6t8V8-] found.
Track | CTDB Status
1 | (7/7) Accurately ripped
2 | (7/7) Accurately ripped
3 | (7/7) Accurately ripped
4 | (7/7) Accurately ripped
5 | (6/7) Accurately ripped
6 | (7/7) Accurately ripped
[AccurateRip ID: 00110518-005bd3e5-4b10a206] found.
Track [ CRC | V2 ] Status
01 [af241802|1b3523b0] (5+3/8) Accurately ripped
02 [15d82748|b68b8893] (5+3/8) Accurately ripped
03 [cb454361|29f4debb] (5+3/8) Accurately ripped
04 [4a25c756|75c2230b] (5+3/8) Accurately ripped
05 [7afd2ccc|ddde133f] (5+3/8) Accurately ripped
06 [216bc25b|dc093044] (5+3/8) Accurately ripped

Track Peak [ CRC32 ] [W/O NULL] [ LOG ]
– 96,5 [68E2E25C] [1DBAE128] CRC32
01 96,5 [F5D8C98E] [B3AF11D0]
02 96,5 [77085BB6] [539B150D]
03 96,5 [BE8D0E95] [36893583]
04 96,5 [CA6DC13A] [C012B0DE]
05 96,5 [5CEB6CA8] [99A5ABC9]
06 96,5 [0BF83A2E] [3FAB6085]

Thanks to Key

LOSSLESS:

_______________

MP3 320 kbps:

_______________

Covers: