Light Of The World ‎- Inner Voices (1999)


Light Of The World ‎- Inner Voices (1999)
EAC Rip | FLAC (Tracks) +CUE, LOG | 518 MB | Covers Included
Jazz / Funk | Label: Sanctuary Records | Catalog Number: Arts 01

This CD is a must for any collection. If you like Incognito, Count Basic, and the Heavies…..you will absolutly love this one. PHAT BASS LINES, funky horns,…and nasty trumpet, trombone, sax, and guitar solos…….Bluey (Incognito) used to play with them, and they even use Peter Hinds on Keyboards. Richard Bull gives them some funky beats on drums too.

Exact Audio Copy V1.0 beta 3 from 29. August 2011

EAC extraction logfile from 14. November 2015, 14:05

Light Of the World / Inner Voices

Used drive : GENERIC CDRCB05 Adapter: 4 ID: 0

Read mode : Secure
Utilize accurate stream : Yes
Defeat audio cache : Yes
Make use of C2 pointers : No

Read offset correction : 102
Overread into Lead-In and Lead-Out : No
Fill up missing offset samples with silence : Yes
Delete leading and trailing silent blocks : No
Null samples used in CRC calculations : Yes
Used interface : Native Win32 interface for Win NT & 2000
Gap handling : Appended to previous track

Used output format : User Defined Encoder
Selected bitrate : 1024 kBit/s
Quality : High
Add ID3 tag : No
Command line compressor : C:Program FilesFLACflac.exe
Additional command line options : -8 -V -T "ARTIST=%artist%" -T "TITLE=%title%" -T "ALBUM=%albumtitle%" -T "DATE=%year%" -T "TRACKNUMBER=%tracknr%" -T "GENRE=%genre%" -T "PERFORMER=%albuminterpret%" -T "COMPOSER=%composer%" %haslyrics%–tag-from-file=LYRICS="%lyricsfile%"%haslyrics% -T "ALBUMARTIST=%albumartist%" -T "DISCNUMBER=%cdnumber%" -T "TOTALDISCS=%totalcds%" -T "TOTALTRACKS=%numtracks%" -T "COMMENT=%comment%" %source% -o %dest%


TOC of the extracted CD

Track | Start | Length | Start sector | End sector
––––––––––––––––––––––––––––-
1 | 0:00.00 | 5:11.37 | 0 | 23361
2 | 5:11.37 | 5:39.15 | 23362 | 48801
3 | 10:50.52 | 6:10.25 | 48802 | 76576
4 | 17:01.02 | 4:31.23 | 76577 | 96924
5 | 21:32.25 | 5:25.45 | 96925 | 121344
6 | 26:57.70 | 1:08.12 | 121345 | 126456
7 | 28:06.07 | 4:31.48 | 126457 | 146829
8 | 32:37.55 | 5:45.05 | 146830 | 172709
9 | 38:22.60 | 6:00.15 | 172710 | 199724
10 | 44:23.00 | 4:35.15 | 199725 | 220364
11 | 48:58.15 | 4:50.22 | 220365 | 242136
12 | 53:48.37 | 1:15.60 | 242137 | 247821


Track 1

Filename G:POSTSLight Of The World ‎- Inner Voices (1999)1 - I Like (The Way U Make Me Feel).wav

Pre-gap length 0:00:02.00

Peak level 98.8 %
Extraction speed 2.4 X
Track quality 100.0 %
Test CRC 0EE62C39
Copy CRC 0EE62C39
Accurately ripped (confidence 2) [EDE4DA73] (AR v2)
Copy OK

Track 2

Filename G:POSTSLight Of The World ‎- Inner Voices (1999)2 - City Life.wav

Peak level 98.8 %
Extraction speed 2.8 X
Track quality 100.0 %
Test CRC C110A39E
Copy CRC C110A39E
Accurately ripped (confidence 2) [089282EC] (AR v2)
Copy OK

Track 3

Filename G:POSTSLight Of The World ‎- Inner Voices (1999)3 - Back 2 Back.wav

Peak level 94.4 %
Extraction speed 3.2 X
Track quality 100.0 %
Test CRC 7433419F
Copy CRC 7433419F
Accurately ripped (confidence 2) [2463EE50] (AR v2)
Copy OK

Track 4

Filename G:POSTSLight Of The World ‎- Inner Voices (1999)4 - The Power.wav

Peak level 86.1 %
Extraction speed 3.4 X
Track quality 100.0 %
Test CRC EA9962FB
Copy CRC EA9962FB
Accurately ripped (confidence 2) [B1EE85E0] (AR v2)
Copy OK

Track 5

Filename G:POSTSLight Of The World ‎- Inner Voices (1999)5 - Blue Sky Day.wav

Peak level 98.8 %
Extraction speed 3.6 X
Track quality 100.0 %
Test CRC CA077805
Copy CRC CA077805
Accurately ripped (confidence 2) [6F01F752] (AR v2)
Copy OK

Track 6

Filename G:POSTSLight Of The World ‎- Inner Voices (1999)6 - Out Of Many One People.wav

Peak level 84.9 %
Extraction speed 2.6 X
Track quality 100.0 %
Test CRC 630E8F62
Copy CRC 630E8F62
Accurately ripped (confidence 2) [D09FB7FF] (AR v2)
Copy OK

Track 7

Filename G:POSTSLight Of The World ‎- Inner Voices (1999)7 - Slow Down.wav

Peak level 83.1 %
Extraction speed 3.8 X
Track quality 100.0 %
Test CRC A227DF29
Copy CRC A227DF29
Accurately ripped (confidence 2) [09643CC2] (AR v2)
Copy OK

Track 8

Filename G:POSTSLight Of The World ‎- Inner Voices (1999)8 - Bahia.wav

Peak level 98.8 %
Extraction speed 4.1 X
Track quality 100.0 %
Test CRC 7D058F49
Copy CRC 7D058F49
Accurately ripped (confidence 2) [BCD84551] (AR v2)
Copy OK

Track 9

Filename G:POSTSLight Of The World ‎- Inner Voices (1999)9 - Some People Say (Some People Do).wav

Peak level 98.8 %
Extraction speed 4.0 X
Track quality 99.9 %
Test CRC 8FB92297
Copy CRC 8FB92297
Accurately ripped (confidence 2) [DCBD142D] (AR v2)
Copy OK

Track 10

Filename G:POSTSLight Of The World ‎- Inner Voices (1999)10 - Part Time Lover.wav

Peak level 88.1 %
Extraction speed 4.0 X
Track quality 99.9 %
Test CRC A22376A7
Copy CRC A22376A7
Accurately ripped (confidence 2) [3089BF25] (AR v2)
Copy OK

Track 11

Filename G:POSTSLight Of The World ‎- Inner Voices (1999)11 - Mind Games.wav

Peak level 98.8 %
Extraction speed 4.7 X
Track quality 100.0 %
Test CRC 3DAB3C5E
Copy CRC 3DAB3C5E
Accurately ripped (confidence 2) [3629FF71] (AR v2)
Copy OK

Track 12

Filename G:POSTSLight Of The World ‎- Inner Voices (1999)12 - Searchin' For El Co Co.wav

Peak level 98.8 %
Extraction speed 3.5 X
Track quality 100.0 %
Test CRC 14E0DBCE
Copy CRC 14E0DBCE
Accurately ripped (confidence 2) [205FF54D] (AR v2)
Copy OK


All tracks accurately ripped

No errors occurred

End of status report

==== Log checksum 4B55063F133DEFDF859ED5C16EB430833039BED991391D1FE8480C7675D6CE59 ====


Tracklist:
01. I Like (The Way You Make Me Feel)
02. City Life
03. Back To Back
04. Power
05. Blue Sky Day
06. Out Of Many One People
07. Slow Down
08. Bahia
09. Some People Say (Some People Do)
10. Part Time Lover
11. Mind Games
12. Searchin' For El Co Co