Dee Dee Ramone - Zonked! (1997) RESTORED


Dee Dee Ramone - Zonked! (1997)
FLAC+CUE+LOG or MP3 CBR 320 | 36:02 mins | 88 MB


Zonked, by Dee Dee Ramone, has all the elements of a Ramones album. For a Ramones album to be labeled a classic, the album always includes at least one anthem, one song that stands out and typifies the Ramones style and attitude. The song on Zonked that comes closest to reaching these lofty standards is "I Am Seeing UFOs", which includes Joey Ramone on vocals. That song has the signature sound that the rest of the tracks on the album seem to be aspiring to. Throughout the album, each track has that distinct lyrical style that made the Ramones a revolution in music: simple, plain statements that capture the imagery of adolescents without flaw.


Tracklist:

01. I'm Zonked, Los Hombres
02. Fix Yourself Up
03. I Am Seeing UFOs
04. Get Off Of The Scene
05. Never Never Again
06. Bad Horoscope
07. It's So Bizarre
08. Get Out Of My Room
09. Someone Who Don't Fit In
10. Victim Of Society
11. My Chico
12. Disguises
13. Why Is Everybody Always Against Germany

Exact Audio Copy V0.99 prebeta 5 from 4. May 2009

EAC extraction logfile from 16. June 2010, 7:44

Dee Dee Ramone / Zonked!

Used drive : PIONEER DVD-RW DVR-116D Adapter: 1 ID: 0

Read mode : Secure
Utilize accurate stream : Yes
Defeat audio cache : Yes
Make use of C2 pointers : No

Read offset correction : 96
Overread into Lead-In and Lead-Out : No
Fill up missing offset samples with silence : Yes
Delete leading and trailing silent blocks : No
Null samples used in CRC calculations : Yes
Used interface : Installed external ASPI interface

Used output format : Internal WAV Routines
Sample format : 44.100 Hz; 16 Bit; Stereo


TOC of the extracted CD

Track | Start | Length | Start sector | End sector
––––––––––––––––––––––––––––-
1 | 0:00.00 | 1:56.70 | 0 | 8769
2 | 1:56.70 | 2:51.65 | 8770 | 21659
3 | 4:48.60 | 4:04.15 | 21660 | 39974
4 | 8:53.00 | 2:10.65 | 39975 | 49789
5 | 11:03.65 | 2:39.42 | 49790 | 61756
6 | 13:43.32 | 2:24.53 | 61757 | 72609
7 | 16:08.10 | 3:32.22 | 72610 | 88531
8 | 19:40.32 | 2:49.58 | 88532 | 101264
9 | 22:30.15 | 2:05.62 | 101265 | 110701
10 | 24:36.02 | 2:16.25 | 110702 | 120926
11 | 26:52.27 | 2:38.05 | 120927 | 132781
12 | 29:30.32 | 3:54.20 | 132782 | 150351
13 | 33:24.52 | 2:37.35 | 150352 | 162161


Range status and errors

Selected range

Filename C:AvaxHome.ruDee Dee Ramone - Zonked! (1997)Dee Dee Ramone - Zonked! (OPM 2118-2).wav

Peak level 100.0 %
Range quality 100.0 %
Test CRC C3D61002
Copy CRC C3D61002
Copy OK

No errors occurred


AccurateRip summary

Track 1 not present in database
Track 2 not present in database
Track 3 not present in database
Track 4 not present in database
Track 5 not present in database
Track 6 not present in database
Track 7 not present in database
Track 8 not present in database
Track 9 not present in database
Track 10 not present in database
Track 11 not present in database
Track 12 not present in database
Track 13 not present in database

None of the tracks are present in the AccurateRip database

End of status report

Produced by Daniel Rey. Recorded at Spa Studios.

• Dee Dee Ramone - lead vocals, guitar
• Daniel Rey - guitar, background vocals
• Barbara Ramone - bass, lead & backing vocals
• Marky Ramone - drums

Special guests:
- Joey Ramone - lead vocals on "3"
- Lux Interior - lead vocals on "6"
- Peter Arsenault - backing vocals on "12"

Original Release Date: October 14, 1997
Re-Release Date: November 29, 2005
Label: Other Peoples Music
Catalog No.: OPM 2118-2

Wanna leave some comment anonymously - login through the mirror:

The Right choice*
http://www.nitroflare.com/view/BF8F5523B918902/DDR197ZON63FC.rar

lossy.mp3
http://www.nitroflare.com/view/022D2A3813CD189/DDR197ZON20GC.rar


* Original CD -> EAC image, embedded cuesheet & more, foobar2000 ready, etc.
(all CUEs, LOGs and other technical info includes in the internal "CD_Support" archive)
The Covers packed in both types of archives.


__________________________________