Phyllis Tate – The Lodger (2015)


Phyllis Tate – The Lodger (2015)
Classical/Contemporary | FLAC lossless/2cd | cuesheets+logs | covers+booklet | 1h58m28s | 269mb
Label: Lyrita | cat. no. REAM.2119


Phyllis Tate is an English composer. Her earliest attempts at composition, dating from her teenage years, were foxtrots for her ukulele. From 1928 to 1932 she studied composition (with Harry Farjeon), the piano, conducting and timpani at the RAM. Her early works, including an operetta (The Policeman’s Serenade), songs, a string quartet, a violin sonata, a cello concerto and a symphony, were variously performed at the RAM, at the Macnaghten-Lemare Concerts, by the Bournemouth Municipal Orchestra and at concerts organized by Hubert Foss of OUP. She also wrote and arranged commercial light music, often using the pseudonyms Max Morelle or Janos. In 1935 she married the music publisher Alan Frank. She lived and worked in London and was at various times involved with the Hampstead Music Club, the Barnet Choral Society, the PRS Member’s Fund (from 1976 to 1981 she was the first woman to serve on the management committee) and the Composers’ Guild.

Tate destroyed almost all her pre-war music. The first work she acknowledged was the Saxophone Concerto of 1944, which had been commissioned by the BBC. In 1947 she came to public attention when her Sonata for clarinet and cello was performed at a London Contemporary Music Centre concert and her Nocturne for Four Voices (composed 1945) was broadcast on the Third Programme. She was often attracted by the sounds and textures of unusual combinations of instruments: the voices in Nocturne, a setting of a poem by Sidney Keyes, are accompanied by string quartet, double bass, celesta and bass clarinet; later works included a setting of Tennyson’s The Lady of Shalott (1956) for tenor, viola, two pianos, celesta and nine percussion instruments, and a Sonatina pastorale for harmonica and harpsichord (1974). She was particularly drawn to vocal music and wrote vocal chamber music, several large-scale choral works, such as A Secular Requiem (1967) and St Martha and the Dragon (1976), as well as her acclaimed opera, a musical thriller, The Lodger (1960). In later life she wrote much music for young people, including several operettas. Exploring a wide variety of formal structures and harmonic languages, Tate’s elegant and expressive music is always clear and accessible.

Tracks:

Cd1
01. Act I, Scene I - Prelude No fire again tonight, Emma [0:10:33.54]
02. Act I, Scene I - Whoever can that be? [0:08:30.65]
03. Act I, Scene I - Now George Bunting. I Haven't got time to sit here with you [0:06:54.76]
04. Act I, Scene I - There's young Joe [0:04:47.29]
05. Act I, Scene II - It is evening, a week later [0:07:01.62]
06. Act I, Scene II - Daisy Bunting arrives [0:09:49.60]
07. Act I, Scene II - Emma fusses half-heartedly with cushions and knick-knacks [0:06:56.10]
08. Act I, Scene II - Emma has returned to her room [0:09:23.02]

Cd2
01. Act II, Scene I - Prelude. It is very late the next night [0:06:51.60]
02. Act II, Scene I - Left alone, Emma rocks herself in her chair [0:05:55.76]
03. Act II, Scene I - Suddenly Emma hears voices approaching outside [0:07:07.40]
04. Act II, Scene II - Late afternoon of the following day [0:05:33.13]
05. Act II, Scene II - Mr Bunting, it's something I ought to tell you [0:04:05.66]
06. Act II, Scene II - Does Mum know [0:09:00.54]
07. Act II, Scene II - The Lodger gropes his way out of the house [0:05:34.33]
08. Act II, Scene II - Epilogue. When did you know who he was [0:10:30.33]

Performers:

BBC Northern Singers – Stephen Wilkinson
BBC Northern Orchestra – Charles Groves

Owen Brannigan - bass
Johanna Peters – mezzo soprano
Marion Studholme - soprano
Joseph Ward - baritone
Alexander Young - tenor

Exact Audio Copy V1.0 beta 3 from 29. August 2011

EAC extraction logfile from 13. November 2015, 21:29

Phyllis Tate / The Lodger

Used drive : TSSTcorpCDDVDW SH-216AB Adapter: 0 ID: 0

Read mode : Secure
Utilize accurate stream : Yes
Defeat audio cache : Yes
Make use of C2 pointers : No

Read offset correction : 6
Overread into Lead-In and Lead-Out : No
Fill up missing offset samples with silence : Yes
Delete leading and trailing silent blocks : No
Null samples used in CRC calculations : Yes
Used interface : Native Win32 interface for Win NT & 2000

Used output format : User Defined Encoder
Selected bitrate : 768 kBit/s
Quality : High
Add ID3 tag : No
Command line compressor : C:Program Files (x86)FLAC Frontendtoolsflac.exe
Additional command line options : -8 -V -T "ARTIST=%artist%" -T "TITLE=%title%" -T "ALBUM=%albumtitle%" -T "DATE=%year%" -T "TRACKNUMBER=%tracknr%" -T "GENRE=%genre%" -T "PERFORMER=%albuminterpret%" -T "COMPOSER=%composer%" %haslyrics%–tag-from-file=LYRICS="%lyricsfile%"%haslyrics% -T "ALBUMARTIST=%albumartist%" -T "DISCNUMBER=%cdnumber%" -T "TOTALDISCS=%totalcds%" -T "TOTALTRACKS=%numtracks%" -T "COMMENT=%comment%" %source% -o %dest%


TOC of the extracted CD

Track | Start | Length | Start sector | End sector
––––––––––––––––––––––––––––-
1 | 0:00.00 | 10:33.41 | 0 | 47515
2 | 10:33.41 | 8:30.49 | 47516 | 85814
3 | 19:04.15 | 6:54.57 | 85815 | 116921
4 | 25:58.72 | 4:47.22 | 116922 | 138468
5 | 30:46.19 | 7:01.47 | 138469 | 170090
6 | 37:47.66 | 9:49.45 | 170091 | 214310
7 | 47:37.36 | 6:56.08 | 214311 | 245518
8 | 54:33.44 | 9:23.02 | 245519 | 287745


Range status and errors

Selected range

Filename H:Usersastarte3. POSTTate, Phyllis - The Lodger1Phyllis Tate - The Lodger.wav

Peak level 78.5 %
Extraction speed 8.1 X
Range quality 99.9 %
Copy CRC BBA2BFCA
Copy OK

No errors occurred


AccurateRip summary

Track 1 not present in database
Track 2 not present in database
Track 3 not present in database
Track 4 not present in database
Track 5 not present in database
Track 6 not present in database
Track 7 not present in database
Track 8 not present in database

None of the tracks are present in the AccurateRip database

End of status report

==== Log checksum 3303150F59008B3EECA80E7C58E1E5792A543C415FB97A49E729AAAC987243FC ====


Exact Audio Copy V1.0 beta 3 from 29. August 2011

EAC extraction logfile from 13. November 2015, 21:41

Phyllis Tate / The Lodger cd2

Used drive : TSSTcorpCDDVDW SH-216AB Adapter: 0 ID: 0

Read mode : Secure
Utilize accurate stream : Yes
Defeat audio cache : Yes
Make use of C2 pointers : No

Read offset correction : 6
Overread into Lead-In and Lead-Out : No
Fill up missing offset samples with silence : Yes
Delete leading and trailing silent blocks : No
Null samples used in CRC calculations : Yes
Used interface : Native Win32 interface for Win NT & 2000

Used output format : User Defined Encoder
Selected bitrate : 768 kBit/s
Quality : High
Add ID3 tag : No
Command line compressor : C:Program Files (x86)FLAC Frontendtoolsflac.exe
Additional command line options : -8 -V -T "ARTIST=%artist%" -T "TITLE=%title%" -T "ALBUM=%albumtitle%" -T "DATE=%year%" -T "TRACKNUMBER=%tracknr%" -T "GENRE=%genre%" -T "PERFORMER=%albuminterpret%" -T "COMPOSER=%composer%" %haslyrics%–tag-from-file=LYRICS="%lyricsfile%"%haslyrics% -T "ALBUMARTIST=%albumartist%" -T "DISCNUMBER=%cdnumber%" -T "TOTALDISCS=%totalcds%" -T "TOTALTRACKS=%numtracks%" -T "COMMENT=%comment%" %source% -o %dest%


TOC of the extracted CD

Track | Start | Length | Start sector | End sector
––––––––––––––––––––––––––––-
1 | 0:00.00 | 6:51.45 | 0 | 30869
2 | 6:51.45 | 5:55.57 | 30870 | 57551
3 | 12:47.27 | 7:07.30 | 57552 | 89606
4 | 19:54.57 | 5:33.10 | 89607 | 114591
5 | 25:27.67 | 4:05.50 | 114592 | 133016
6 | 29:33.42 | 9:00.41 | 133017 | 173557
7 | 38:34.08 | 5:34.25 | 173558 | 198632
8 | 44:08.33 | 10:30.25 | 198633 | 245907


Range status and errors

Selected range

Filename H:Usersastarte3. POSTTate, Phyllis - The Lodger2Phyllis Tate - The Lodger cd2.wav

Peak level 65.8 %
Extraction speed 7.9 X
Range quality 100.0 %
Copy CRC 432AD740
Copy OK

No errors occurred


AccurateRip summary

Track 1 not present in database
Track 2 not present in database
Track 3 not present in database
Track 4 not present in database
Track 5 not present in database
Track 6 not present in database
Track 7 not present in database
Track 8 not present in database

None of the tracks are present in the AccurateRip database

End of status report

==== Log checksum 5D02E1D5661F8E9BF140EB1EB58605F3C7FC1EA43137022578EF95D8C94F0D9A ====