The Allman Brothers Band - An Evening With The Allman Brothers Band: First Set (1992)


The Allman Brothers Band - An Evening With The Allman Brothers Band: First Set (1992)
EAC Rip | FLAC (Img) + Cue + Log ~ 537 Mb | MP3 CBR320 ~ 209 Mb
Scans Included (JPG, 400 dpi) | RAR 5% Recovery
Blues Rock, Southern Rock | Epic #EK 48998

An Evening with the Allman Brothers Band: First Set is the thirteenth album by the rock group the Allman Brothers Band. It was recorded live in December 1991 and March 1992, and released in 1992. An Evening with the Allman Brothers Band: First Set was the first live Allman Brothers Band album, and the third overall, to feature Warren Haynes on guitar and Allen Woody on bass. Haynes and Woody had joined the group when it reformed in 1989.
| | |

***************


Track List:

01. End Of The Line [05:44]
02. Blue Sky [08:40]
03. Get On With Your Life [07:59]
04. Southbound [07:53]
05. Midnight Blues [05:15]
06. Melissa [05:29]
07. Nobody Knows [15:38]
08. Dreams [11:37]
09. Revival [05:57]

Exact Audio Copy V1.0 beta 3 from 29. August 2011

EAC extraction logfile from 2. February 2016, 1:21

The Allman Brothers Band / An Evening With The Allman Brothers Band - First Set

Used drive : PIONEER BD-RW BDR-TD03 Adapter: 0 ID: 1

Read mode : Secure
Utilize accurate stream : Yes
Defeat audio cache : Yes
Make use of C2 pointers : No

Read offset correction : 667
Overread into Lead-In and Lead-Out : No
Fill up missing offset samples with silence : Yes
Delete leading and trailing silent blocks : No
Null samples used in CRC calculations : Yes
Used interface : Native Win32 interface for Win NT & 2000

Used output format : User Defined Encoder
Selected bitrate : 768 kBit/s
Quality : High
Add ID3 tag : No
Command line compressor : C:Program Files (x86)Exact Audio CopyFLACFLAC.EXE
Additional command line options : -6 -V -T "ARTIST=%artist%" -T "TITLE=%title%" -T "ALBUM=%albumtitle%" -T "DATE=%year%" -T "TRACKNUMBER=%tracknr%" -T "GENRE=%genre%" -T "COMMENT=%comment%" -T "BAND=%albuminterpret%" -T "ALBUMARTIST=%albuminterpret%" -T "COMPOSER=%composer%" %haslyrics%–tag-from-file=LYRICS="%lyricsfile%"%haslyrics% -T "DISCNUMBER=%cdnumber%" -T "TOTALDISCS=%totalcds%" -T "TOTALTRACKS=%numtracks%" %hascover%–picture="%coverfile%"%hascover% %source% -o %dest%


TOC of the extracted CD

Track | Start | Length | Start sector | End sector
––––––––––––––––––––––––––––-
1 | 0:00.00 | 5:43.27 | 0 | 25751
2 | 5:43.27 | 8:39.45 | 25752 | 64721
3 | 14:22.72 | 7:58.68 | 64722 | 100639
4 | 22:21.65 | 7:52.70 | 100640 | 136109
5 | 30:14.60 | 5:14.47 | 136110 | 159706
6 | 35:29.32 | 5:28.28 | 159707 | 184334
7 | 40:57.60 | 15:37.62 | 184335 | 254671
8 | 56:35.47 | 11:36.30 | 254672 | 306901
9 | 68:12.02 | 5:56.33 | 306902 | 333634


Range status and errors

Selected range

Filename C:UsersDerisDesktopkpnemo.euAlmBrBanThe Allman Brothers Band - An Evening With The Allman Brothers Band - First Set.wav

Peak level 97.7 %
Extraction speed 5.2 X
Range quality 99.9 %
Test CRC 43B28CC7
Copy CRC 43B28CC7
Copy OK

No errors occurred


AccurateRip summary

Track 1 accurately ripped (confidence 25) [0D31F087] (AR v2)
Track 2 accurately ripped (confidence 24) [0D5945CA] (AR v2)
Track 3 accurately ripped (confidence 25) [47B3CEA5] (AR v2)
Track 4 accurately ripped (confidence 24) [7D93EFBA] (AR v2)
Track 5 accurately ripped (confidence 25) [3CE50BC7] (AR v2)
Track 6 accurately ripped (confidence 24) [B8B325C3] (AR v2)
Track 7 accurately ripped (confidence 24) [EE1C5B73] (AR v2)
Track 8 accurately ripped (confidence 23) [EFEF662E] (AR v2)
Track 9 accurately ripped (confidence 23) [46752E7B] (AR v2)

All tracks accurately ripped

End of status report

–– CUETools DB Plugin V2.1.3

[CTDB TOCID: TYryEc__nEdTb5I9Xyrkmzyf59A-] found, Submit result: TYryEc__nEdTb5I9Xyrkmzyf59A- has been confirmed
[13a90e76] (53/59) Accurately ripped
[68d208bc] (01/59) No match
[e0bd579a] (01/59) No match
[286195e3] (01/59) No match
[6b5ee45f] (01/59) No match
[cfe1e2cf] (01/59) No match
[6a5ad968] (01/59) No match


==== Log checksum F2E2CA8FD2933EF19DBA624CDEF96F94D3F00C1B45991A09A49212D82969C99A ====

foobar2000 1.2.6 / Dynamic Range Meter 1.1.1
log date: 2016-02-06 11:51:03

––––––––––––––––––––––––––––––––––––––––
Analyzed: The Allman Brothers Band / An Evening With The Allman Brothers Band - First Set
––––––––––––––––––––––––––––––––––––––––

DR Peak RMS Duration Track
––––––––––––––––––––––––––––––––––––––––
DR12 -0.44 dB -14.26 dB 5:43 01-End Of The Line
DR11 -0.44 dB -13.23 dB 8:40 02-Blue Sky
DR12 -0.44 dB -15.67 dB 7:59 03-Get On With Your Life
DR10 -0.44 dB -12.49 dB 7:53 04-Southbound
DR12 -2.57 dB -18.36 dB 5:15 05-Midnight Blues
DR12 -0.20 dB -14.91 dB 5:28 06-Melissa
DR12 -0.44 dB -13.82 dB 15:38 07-Nobody Knows
DR12 -0.44 dB -15.21 dB 11:36 08-Dreams
DR13 -0.44 dB -14.92 dB 5:56 09-Revival
––––––––––––––––––––––––––––––––––––––––

Number of tracks: 9
Official DR value: DR12

Samplerate: 44100 Hz
Channels: 2
Bits per sample: 16
Bitrate: 907 kbps
Codec: FLAC
================================================================================

[CUETools log; Date: 06.02.2016 11:51:04; Version: 2.1.5]
[CTDB TOCID: TYryEc__nEdTb5I9Xyrkmzyf59A-] found.
Track | CTDB Status
1 | (59/62) Accurately ripped
2 | (57/62) Accurately ripped
3 | (58/62) Accurately ripped
4 | (58/62) Accurately ripped
5 | (59/62) Accurately ripped
6 | (58/62) Accurately ripped
7 | (58/62) Accurately ripped
8 | (57/62) Accurately ripped
9 | (55/62) Accurately ripped
[AccurateRip ID: 0017e70b-00b2babc-7d116009] found.
Track [ CRC | V2 ] Status
01 [be5e9858|0d31f087] (025+025/170) Accurately ripped
02 [7d8ecc6b|0d5945ca] (026+024/171) Accurately ripped
03 [2156dc98|47b3cea5] (025+025/169) Accurately ripped
04 [56c3ffc7|7d93efba] (027+024/170) Accurately ripped
05 [47e9f9a6|3ce50bc7] (026+025/171) Accurately ripped
06 [73917ccb|b8b325c3] (026+024/167) Accurately ripped
07 [63d93cbc|ee1c5b73] (026+024/165) Accurately ripped
08 [7ba3c580|efef662e] (025+023/166) Accurately ripped
09 [6d189d4b|46752e7b] (017+023/156) Accurately ripped
Offsetted by -1435:
01 [9fea0a67] (009/170) Accurately ripped
02 [fef76eff] (009/171) Accurately ripped
03 [690a2d51] (009/169) Accurately ripped
04 [335ca2fa] (009/170) Accurately ripped
05 [4fb55bd3] (009/171) Accurately ripped
06 [a2363390] (008/167) Accurately ripped
07 [21167c0d] (007/165) Accurately ripped
08 [cf1e6482] (007/166) Accurately ripped
09 [5f36c0d3] (004/156) Accurately ripped
Offsetted by -833:
01 [dae53d35] (003/170) Accurately ripped
02 [5c08ba67] (004/171) Accurately ripped
03 [d4538e93] (004/169) Accurately ripped
04 [22722fd6] (004/170) Accurately ripped
05 [15a67ad1] (003/171) Accurately ripped
06 [da29ec38] (003/167) Accurately ripped
07 [a4be59ff] (002/165) Accurately ripped
08 [1dbcbf26] (003/166) Accurately ripped
09 [4850d263] (002/156) Accurately ripped
Offsetted by -365:
01 [d32aa631] (002/170) Accurately ripped
02 [9d94e5b7] (002/171) Accurately ripped
03 [fe0ebab7] (002/169) Accurately ripped
04 [6e20b101] (002/170) Accurately ripped
05 [3e9f8e75] (002/171) Accurately ripped
06 [2548ffa5] (002/167) Accurately ripped
07 [b9722e83] (002/165) Accurately ripped
08 [2c1421ae] (002/166) Accurately ripped
09 [56d55a83] (002/156) Accurately ripped
Offsetted by -227:
01 [dabbd58f] (004/170) Accurately ripped
02 [343119df] (004/171) Accurately ripped
03 [2e7726e9] (004/169) Accurately ripped
04 [eaafcb09] (004/170) Accurately ripped
05 [a1b406df] (004/171) Accurately ripped
06 [185888bd] (004/167) Accurately ripped
07 [e6ef69e5] (004/165) Accurately ripped
08 [b6df2132] (004/166) Accurately ripped
09 [eb864793] (003/156) Accurately ripped
Offsetted by -30:
01 [79f11ebe] (023/170) Accurately ripped
02 [e261b5f3] (023/171) Accurately ripped
03 [21f23f82] (023/169) Accurately ripped
04 [c28c5f64] (023/170) Accurately ripped
05 [dfee8f9c] (023/171) Accurately ripped
06 [58cd0882] (023/167) Accurately ripped
07 [4ed44616] (023/165) Accurately ripped
08 [ccc58df4] (023/166) Accurately ripped
09 [794b321b] (021/156) Accurately ripped
Offsetted by 217:
01 [35dcdd43] (005/170) Accurately ripped
02 [9332cccf] (004/171) Accurately ripped
03 [bf150895] (004/169) Accurately ripped
04 [50ef3880] (004/170) Accurately ripped
05 [ce210259] (005/171) Accurately ripped
06 [5253b290] (005/167) Accurately ripped
07 [846c12b1] (005/165) Accurately ripped
08 [061e574a] (004/166) Accurately ripped
09 [9d6679f3] (005/156) Accurately ripped
Offsetted by 263:
01 [8db7ed0d] (003/170) Accurately ripped
02 [1abc3387] (003/171) Accurately ripped
03 [79e281fb] (003/169) Accurately ripped
04 [5f0bcf25] (003/170) Accurately ripped
05 [2a2cb8d6] (003/171) Accurately ripped
06 [bf7568a8] (003/167) Accurately ripped
07 [9395d127] (003/165) Accurately ripped
08 [df0cac76] (003/166) Accurately ripped
09 [79a173a3] (003/156) Accurately ripped
Offsetted by -1408:
01 [10b2f7d8] (004/170) Accurately ripped
02 [3dd3366b] (004/171) Accurately ripped
03 [b54b2118] (004/169) Accurately ripped
04 [ecb3520a] (004/170) Accurately ripped
05 [49f5b659] (004/171) Accurately ripped
06 [fba4a439] (004/167) Accurately ripped
07 [67348d3c] (003/165) Accurately ripped
08 [06199680] (003/166) Accurately ripped
09 [876fa14b] (000/156) No match (V2 was not tested)
Offsetted by 101:
01 [e9025c67] (000/170) No match (V2 was not tested)
02 [a19586ff] (000/171) No match (V2 was not tested)
03 [b05ccb51] (000/169) No match (V2 was not tested)
04 [01b652b8] (000/170) No match (V2 was not tested)
05 [2f7dec50] (000/171) No match (V2 was not tested)
06 [84513481] (000/167) No match (V2 was not tested)
07 [eee16a0d] (000/165) No match (V2 was not tested)
08 [95298082] (000/166) No match (V2 was not tested)
09 [884c30d3] (000/156) No match (V2 was not tested)

Track Peak [ CRC32 ] [W/O NULL] [ LOG ]
– 97,7 [43B28CC7] [9F2D16B5] CRC32
01 95,1 [3BC21668] [B3F955DF]
02 95,1 [BADE9FCD] [A5D943DF]
03 95,1 [C052D25A] [8E4D4CF9]
04 95,1 [236E909C] [0C4D475B]
05 74,3 [D2E3CA03] [B10E1AC2]
06 97,7 [E0A7FF15] [B5A710D3]
07 95,1 [DD375DF4] [2F300F8E]
08 95,1 [F3CBF9A0] [F145A2D3]
09 95,1 [A7D02592] [876B3FD7]



All thanks go to Boris1



No mirrors, please!

Download: