Hawkwind - Live & Rare: Onward Flies The Bird (1997)


Hawkwind - Live & Rare: Onward Flies The Bird (1997)
EAC Rip | FLAC (Img) + Cue + Log ~ 497 Mb | MP3 CBR320 ~ 183 Mb
Scans (PNG, 400 dpi) ~ 30 Mb | RAR 5% Recovery
Space/Psychedelic/Progressive Rock | Emporio #EMPRCD 710

Hawkwind are an English rock band and one of the earliest space rock groups. Their lyrics favour urban and science fiction themes. Formed in November 1969, Hawkwind have gone through many incarnations and they have incorporated different styles into their music, including hard rock, heavy metal, progressive rock and psychedelic rock. They are also regarded as an influential proto-punk band. Dozens of musicians, dancers and writers have worked with the band since their inception. Notable musicians to have performed in the band include Lemmy, Ginger Baker and Huw Lloyd-Langton, but the band are most closely associated with their founder, the singer, songwriter and guitarist Dave Brock, who remains the only original member.
~ Wiki

| | |

***************


Track List:

01. Earth Calling [0:02:12.30]
02. Born To Go [0:05:01.40]
03. Space Is Deep [0:08:31.15]
04. Silver Machine [0:04:00.72]
05. Motorhead [0:03:06.23]
06. Angels Of Death [0:01:43.17]
07. Magnu [0:02:48.73]
08. Hash Cake '77 [0:04:44.17]
09. High Rise [0:05:41.20]
10. Douglas In The Jungle [0:06:44.60]
11. Urban Guerilla [0:06:29.13]
12. Who's Gonna Win The War [0:04:52.20]
13. Masters Of The Universe [0:03:28.37]
14. You Shouldn't Do That [0:08:55.03]
15. Spirit Of The Age [0:08:00.60]

Exact Audio Copy V1.1 from 23. June 2015

EAC extraction logfile from 29. December 2015, 18:00

Hawkwind / Live & Rare - Onward Flies the Bird

Used drive : HL-DT-STDVDRAM GH24NSC0 Adapter: 1 ID: 0

Read mode : Secure
Utilize accurate stream : Yes
Defeat audio cache : Yes
Make use of C2 pointers : No

Read offset correction : 6
Overread into Lead-In and Lead-Out : No
Fill up missing offset samples with silence : Yes
Delete leading and trailing silent blocks : No
Null samples used in CRC calculations : Yes
Used interface : Native Win32 interface for Win NT & 2000

Used output format : Internal WAV Routines
Sample format : 44.100 Hz; 16 Bit; Stereo


TOC of the extracted CD

Track | Start | Length | Start sector | End sector
––––––––––––––––––––––––––––-
1 | 0:00.00 | 2:12.30 | 0 | 9929
2 | 2:12.30 | 5:01.40 | 9930 | 32544
3 | 7:13.70 | 8:31.15 | 32545 | 70884
4 | 15:45.10 | 4:00.72 | 70885 | 88956
5 | 19:46.07 | 3:06.23 | 88957 | 102929
6 | 22:52.30 | 1:43.17 | 102930 | 110671
7 | 24:35.47 | 2:48.73 | 110672 | 123344
8 | 27:24.45 | 4:44.17 | 123345 | 144661
9 | 32:08.62 | 5:41.20 | 144662 | 170256
10 | 37:50.07 | 6:44.60 | 170257 | 200616
11 | 44:34.67 | 6:29.13 | 200617 | 229804
12 | 51:04.05 | 4:52.20 | 229805 | 251724
13 | 55:56.25 | 3:28.37 | 251725 | 267361
14 | 59:24.62 | 8:55.03 | 267362 | 307489
15 | 68:19.65 | 8:00.60 | 307490 | 343549


Range status and errors

Selected range

Filename C:Music CDHawkwind - Live & Rare - Onward Flies the Bird.wav

Peak level 94.3 %
Extraction speed 2.1 X
Range quality 100.0 %
Test CRC C49AF3A4
Copy CRC C49AF3A4
Copy OK

No errors occurred


AccurateRip summary

Track 1 accurately ripped (confidence 12) [6A633CD7] (AR v2)
Track 2 accurately ripped (confidence 12) [D9B2FFB4] (AR v2)
Track 3 accurately ripped (confidence 12) [B03162BB] (AR v2)
Track 4 accurately ripped (confidence 12) [AF52B6D0] (AR v2)
Track 5 accurately ripped (confidence 12) [7DAD9ADB] (AR v2)
Track 6 accurately ripped (confidence 12) [4407E3C2] (AR v2)
Track 7 accurately ripped (confidence 12) [BDE1BA74] (AR v2)
Track 8 accurately ripped (confidence 12) [6EC9E40F] (AR v2)
Track 9 accurately ripped (confidence 12) [07571D6B] (AR v2)
Track 10 accurately ripped (confidence 12) [27D3E9FF] (AR v2)
Track 11 accurately ripped (confidence 12) [FA6CE581] (AR v2)
Track 12 accurately ripped (confidence 12) [7A9C88DA] (AR v2)
Track 13 accurately ripped (confidence 12) [4D498C2D] (AR v2)
Track 14 accurately ripped (confidence 12) [F3AA937D] (AR v2)
Track 15 accurately ripped (confidence 12) [64B6FD3A] (AR v2)

All tracks accurately ripped

End of status report

–– CUETools DB Plugin V2.1.6

[CTDB TOCID: e2Vy__i9wH5fNha3Z6nFpscDQus-] found
Submit result: e2Vy__i9wH5fNha3Z6nFpscDQus- has been confirmed
Track | CTDB Status
1 | (8/8) Accurately ripped
2 | (8/8) Accurately ripped
3 | (8/8) Accurately ripped
4 | (8/8) Accurately ripped
5 | (8/8) Accurately ripped
6 | (8/8) Accurately ripped
7 | (8/8) Accurately ripped
8 | (8/8) Accurately ripped
9 | (8/8) Accurately ripped
10 | (8/8) Accurately ripped
11 | (8/8) Accurately ripped
12 | (8/8) Accurately ripped
13 | (8/8) Accurately ripped
14 | (8/8) Accurately ripped
15 | (8/8) Accurately ripped


==== Log checksum 0130BBB29C37A3218ABAF03F46E302C65D8D7BEA1DB2AEDC6DE570A56EC56E74 ====

foobar2000 1.2.6 / Dynamic Range Meter 1.1.1
log date: 2016-02-05 12:56:07

––––––––––––––––––––––––––––––––––––––––
Analyzed: Hawkwind / Live & Rare - Onward Flies the Bird
––––––––––––––––––––––––––––––––––––––––

DR Peak RMS Duration Track
––––––––––––––––––––––––––––––––––––––––
DR6 -1.08 dB -10.47 dB 2:12 01-Earth Calling
DR7 -0.63 dB -8.93 dB 5:02 02-Born To Go
DR9 -0.54 dB -13.11 dB 8:31 03-Space Is Deep
DR7 -0.50 dB -8.92 dB 4:01 04-Silver Machine
DR7 -0.59 dB -8.63 dB 3:06 05-Motorhead
DR7 -0.50 dB -8.64 dB 1:43 06-Angels Of Death
DR7 -0.53 dB -8.68 dB 2:49 07-Magnu
DR7 -1.41 dB -10.34 dB 4:44 08-Hash Cake '77
DR9 -0.71 dB -10.61 dB 5:41 09-High Rise
DR7 -0.95 dB -9.78 dB 6:45 10-Douglas In The Jungle
DR7 -0.53 dB -9.66 dB 6:29 11-Urban Guerilla
DR7 -0.54 dB -10.85 dB 4:52 12-Who's Gonna Win The War
DR6 -0.50 dB -7.79 dB 3:28 13-Masters Of The Universe
DR6 -0.50 dB -7.79 dB 8:55 14-You Shouldn't Do That
DR7 -0.51 dB -11.37 dB 8:01 15-Spirit Of The Age
––––––––––––––––––––––––––––––––––––––––

Number of tracks: 15
Official DR value: DR7

Samplerate: 44100 Hz
Channels: 2
Bits per sample: 16
Bitrate: 864 kbps
Codec: FLAC
================================================================================

[CUETools log; Date: 06.02.2016 14:00:13; Version: 2.1.5]
[CTDB TOCID: e2Vy__i9wH5fNha3Z6nFpscDQus-] found.
Track | CTDB Status
1 | (9/9) Accurately ripped
2 | (9/9) Accurately ripped
3 | (9/9) Accurately ripped
4 | (9/9) Accurately ripped
5 | (9/9) Accurately ripped
6 | (9/9) Accurately ripped
7 | (9/9) Accurately ripped
8 | (9/9) Accurately ripped
9 | (9/9) Accurately ripped
10 | (9/9) Accurately ripped
11 | (9/9) Accurately ripped
12 | (9/9) Accurately ripped
13 | (9/9) Accurately ripped
14 | (9/9) Accurately ripped
15 | (9/9) Accurately ripped
[AccurateRip ID: 002574cc-01b01b13-da11e40f] found.
Track [ CRC | V2 ] Status
01 [08901a10|6a633cd7] (07+12/19) Accurately ripped
02 [f6c591b8|d9b2ffb4] (07+12/19) Accurately ripped
03 [916b9ff7|b03162bb] (07+12/19) Accurately ripped
04 [1e6eb921|af52b6d0] (07+12/19) Accurately ripped
05 [f6bd7e64|7dad9adb] (07+12/19) Accurately ripped
06 [26a20fa6|4407e3c2] (07+12/19) Accurately ripped
07 [b74c5add|bde1ba74] (07+12/19) Accurately ripped
08 [3764f2ec|6ec9e40f] (07+12/19) Accurately ripped
09 [cbe5b4cd|07571d6b] (07+12/19) Accurately ripped
10 [0d7eb391|27d3e9ff] (07+12/19) Accurately ripped
11 [5fa3c409|fa6ce581] (07+12/19) Accurately ripped
12 [46b1dbbb|7a9c88da] (07+12/19) Accurately ripped
13 [799a9b55|4d498c2d] (06+12/18) Accurately ripped
14 [b2de51f0|f3aa937d] (07+12/19) Accurately ripped
15 [faba731a|64b6fd3a] (07+12/19) Accurately ripped
Offsetted by -664:
01 [aa4b7500] (00/19) No match (V2 was not tested)
02 [7a1cc858] (00/19) No match (V2 was not tested)
03 [d6f396d7] (00/19) No match (V2 was not tested)
04 [a8a49519] (00/19) No match (V2 was not tested)
05 [7cbce11c] (00/19) No match (V2 was not tested)
06 [ed112d26] (00/19) No match (V2 was not tested)
07 [9fff2df5] (00/19) No match (V2 was not tested)
08 [1e8f4374] (00/19) No match (V2 was not tested)
09 [ea2b81bd] (00/19) No match (V2 was not tested)
10 [5d1919d9] (00/19) No match (V2 was not tested)
11 [00297909] (00/19) No match (V2 was not tested)
12 [deda2403] (00/19) No match (V2 was not tested)
13 [48ae619d] (00/18) No match (V2 was not tested)
14 [559f4168] (00/19) No match (V2 was not tested)
15 [6b823062] (00/19) No match (V2 was not tested)

Track Peak [ CRC32 ] [W/O NULL] [ LOG ]
– 94,3 [C49AF3A4] [E4AFF910] CRC32
01 88,3 [DBBD1118] [BDD828BD]
02 93,0 [04AB6660] [DD340EF2]
03 93,9 [3386274D] [C08B6074]
04 94,3 [E207A246] [5A14811B]
05 93,4 [59A891C2] [4EC5D248]
06 94,3 [AABD77CA] [88BDDF2C]
07 94,0 [6A5DD8A1] [B18363B3]
08 85,0 [914A685E] [B8B2E9BB]
09 92,1 [79E13AC6] [F64C5599]
10 89,5 [92A536B5] [83EA127A]
11 94,0 [F6A31FD8] [10701EE3]
12 93,9 [FEED4814] [A4A0CD92]
13 94,3 [AECB1E42] [D59ABEA5]
14 94,3 [B1CBB568] [DA47C7D6]
15 94,2 [56B2A7CC] [9FE86D2E]


All thanks go to edenika



No mirrors, please!

Download: