Orenda - A Tale Of A Tortured Soul (2008)


Orenda - A Tale Of A Tortured Soul (2008)
EAC Rip | FLAC (Img) + Cue + Log ~ 533 Mb | MP3 CBR320 ~ 185 Mb
Scans (JPG, 600 dpi) ~ 32 Mb | RAR 5% Recovery
Progressive Metal | Musea #FGBG 4744.AR

Orenda is a progressive metal band from Rouen/Haute-Normandie, France consisting of Stéphane Coubray (keyboards, vocals), Anthony Lefebvre (vocals), Raphael Léger (drums, vocals), Cédrick Saulnier (guitars, vocals), and Juliene Estève (bass, vocals). Orenda was created in 1998 at the University of Rouen as a Dream Theater cover band. The band started to work on original compositions in September of 2000 but was severely delayed to a serious car accident in February of 2002. In August of 2005, the band started recording their debut album "A Tale Of A Tortured Soul" which was released on Musea in February of 2008. "A Tale Of A Tortured Soul" is a concept album with nine songs, but is intended to be one piece.

Orenda is keyboard driven progressive metal similar to Dream Theater, Symphony X and Shadow Gallery, but also includes some of the darker atmospheres of Pain Of Salvation. They concentrate on melodic vocal harmonies, instrumental virtuosity, guitar and synthesizer interplay, powerful riffs, and include nice acoustic sequences.
~ Prog Archives
| |

***************


Track List:

01. Nice To Meet You [02:20]
02. From The Ashes [08:35]
03. Angel Salvation [05:01]
04. The Trial [08:45]
05. Passion And Loneliness [13:10]
06. Lost [06:13]
07. Night [10:01]
08. Redemption [15:37]
09. I'm Back [07:36]

Line-up / Musicians:

Anthony Lefebvre - vocals, percussions
Stephane Coubray - keyboards, piano, vocals, percussions
Jean Charles Valentin - bass
Cedric Saulnier - guitars, vocals
Raphael Leger - drums, rap vocals

Exact Audio Copy V1.1 from 23. June 2015

EAC extraction logfile from 3. February 2016, 11:58

Orenda / A Tale Of A Tortured Soul

Used drive : TSSTcorpCDDVDW SH-224DB Adapter: 1 ID: 0

Read mode : Secure
Utilize accurate stream : Yes
Defeat audio cache : Yes
Make use of C2 pointers : No

Read offset correction : 6
Overread into Lead-In and Lead-Out : No
Fill up missing offset samples with silence : Yes
Delete leading and trailing silent blocks : No
Null samples used in CRC calculations : Yes
Used interface : Native Win32 interface for Win NT & 2000

Used output format : User Defined Encoder
Selected bitrate : 1024 kBit/s
Quality : High
Add ID3 tag : No
Command line compressor : C:Program Files (x86)Exact Audio Copywin64flac.exe
Additional command line options : -V -8 -T "Date=%year%" -T "Genre=%genre%" %source%


TOC of the extracted CD

Track | Start | Length | Start sector | End sector
––––––––––––––––––––––––––––-
1 | 0:00.00 | 2:19.12 | 0 | 10436
2 | 2:19.12 | 8:34.15 | 10437 | 49001
3 | 10:53.27 | 5:00.50 | 49002 | 71551
4 | 15:54.02 | 8:44.03 | 71552 | 110854
5 | 24:38.05 | 13:09.46 | 110855 | 170075
6 | 37:47.51 | 6:12.44 | 170076 | 198019
7 | 44:00.20 | 10:00.73 | 198020 | 243092
8 | 54:01.18 | 15:36.34 | 243093 | 313326
9 | 69:37.52 | 7:35.58 | 313327 | 347509


Range status and errors

Selected range

Filename C:Sket4erOrenda - A Tale Of A Tortured Soul 2008Orenda - A Tale Of A Tortured Soul.wav

Peak level 100.0 %
Extraction speed 3.4 X
Range quality 100.0 %
Test CRC D0344D8A
Copy CRC D0344D8A
Copy OK

No errors occurred


AccurateRip summary

Track 1 not present in database
Track 2 not present in database
Track 3 not present in database
Track 4 not present in database
Track 5 not present in database
Track 6 not present in database
Track 7 not present in database
Track 8 not present in database
Track 9 not present in database

None of the tracks are present in the AccurateRip database

End of status report

–– CUETools DB Plugin V2.1.6

[CTDB TOCID: uASEQeXT07x626ifQRa9hK_XHiE-] found
Submit result: uASEQeXT07x626ifQRa9hK_XHiE- has been confirmed
Track | CTDB Status
1 | (1/1) Accurately ripped
2 | (1/1) Accurately ripped
3 | (1/1) Accurately ripped
4 | (1/1) Accurately ripped
5 | (1/1) Accurately ripped
6 | (1/1) Accurately ripped
7 | (1/1) Accurately ripped
8 | (1/1) Accurately ripped
9 | (1/1) Accurately ripped


==== Log checksum 039EB21274BEA3FB86924731386DEA01B6A3208EC008286FA60D1767AB301970 ====

foobar2000 1.2.6 / Dynamic Range Meter 1.1.1
log date: 2016-02-06 13:58:35

––––––––––––––––––––––––––––––––––––––––
Analyzed: Orenda / A Tale Of A Tortured Soul
––––––––––––––––––––––––––––––––––––––––

DR Peak RMS Duration Track
––––––––––––––––––––––––––––––––––––––––
DR7 -0.22 dB -9.80 dB 2:19 01-Nice To Meet You
DR7 0.00 dB -8.87 dB 8:34 02-From The Ashes
DR6 -0.22 dB -9.12 dB 5:01 03-Angel Salvation
DR7 -0.22 dB -9.13 dB 8:44 04-The Trial
DR7 -0.22 dB -9.67 dB 13:10 05-Passion And Loneliness
DR6 -0.25 dB -9.58 dB 6:13 06-Lost
DR6 -0.25 dB -7.87 dB 10:01 07-Night
DR6 0.00 dB -8.01 dB 15:36 08-Redemption
DR7 -0.25 dB -9.72 dB 7:36 09-I'm Back
––––––––––––––––––––––––––––––––––––––––

Number of tracks: 9
Official DR value: DR6

Samplerate: 44100 Hz
Channels: 2
Bits per sample: 16
Bitrate: 919 kbps
Codec: FLAC
================================================================================

[CUETools log; Date: 06.02.2016 13:58:30; Version: 2.1.5]
[CTDB TOCID: uASEQeXT07x626ifQRa9hK_XHiE-] found.
Track | CTDB Status
1 | (2/2) Accurately ripped
2 | (2/2) Accurately ripped
3 | (2/2) Accurately ripped
4 | (2/2) Accurately ripped
5 | (2/2) Accurately ripped
6 | (2/2) Accurately ripped
7 | (2/2) Accurately ripped
8 | (2/2) Accurately ripped
9 | (2/2) Accurately ripped
[AccurateRip ID: 00171990-00b1d65b-7b121909] disk not present in database.

Track Peak [ CRC32 ] [W/O NULL] [ LOG ]
– 100,0 [D0344D8A] [BEDCF5F9] CRC32
01 97,4 [83F3921C] [5AC68227]
02 100,0 [F7760722] [EB2BAE85]
03 97,4 [BA96828C] [0EE36481]
04 97,4 [6FF86CBE] [91EE8041]
05 97,4 [75E1DA8D] [5FDFCD85]
06 97,1 [A9B398FE] [F2C51A68]
07 97,1 [CF7584C8] [B016D398]
08 100,0 [E7F51039] [0A5D841B]
09 97,1 [92D0DC1F] [26DED870]


All thanks go to Sket4er



No mirrors, please!

Download: