Âõîä â ñâîé àêêàóíò

Èëè âîéäèòå ÷åðåç ñîö. ñåòè

Various Artists - The Compact 2 Tone Story (1993) 4 CD Box Set


Various Artists - The Compact 2 Tone Story (1993) 4 CD Box Set
EAC | FLAC | Tracks (Cue&Log) ~ 1.51 Gb (incl 5%) | Scans ~ 126 Mb | Time: 04:03:26
Genre: Ska, Punk, New Wave | Label: Chrysalis | # 7243 8 27721 25

Rare 1993 UK 68-track 4-CD collection including The Specials, Madness, The Selecter, The Beat, The Bodysnatchers, Rico, Elvis Costello and many more. This 4 CD box set collects the A-side and B-side of every single released on the label. Both sides of the Dutch Concrete Jungle single plus both tracks from the free single which accompanied initial copies of More Specials are also included. The Bodysnatchers live version of 007 is the only unreleased track in the set, however it did previously appear in the film Dance Craze but failed to make it on to the films soundtrack album.

Jerry Dammers was less than impressed with its release and had this to say about it: "It's real train spotters stuff with every B-side from every free single and I wasn't even consulted about it. In some ways that (The Compact 2 Tone Story) is the worst." (Uncut Magazine interview 1998).


Tracklist:

CD1:

01. The Special A.K.A. - Gangsters (02:49)
02. The Selecter - The Selecter (03:01)
03. Madness - The Prince (02:31)
04. The Selecter - On My Radio (03:14)
05. The Specials Featuring Rico - A Message To You Rudy (02:55)
06. The Beat - Tears Of A Clown (02:43)
07. Elvis Costello & The Attractions - I Can't Stand Up For Falling Down (02:07)
08. The Specials - Too Much Too Young (02:06)
09. The Selecter - Three Minute Hero (03:04)
10. The Bodysnatchers - People Do Rock Steady (02:57)
11. The Selecter - Missing Words (03:22)
12. The Specials - Rat Race (03:10)
13. The Bodysnatchers - Easy Life (03:14)
14. The Specials - Stereotype (03:53)
15. The Swinging Cats - Mantovani (03:17)

CD2:

01. Rico - Sea Cruise (03:02)
02. The Specials Featuring Rico With The Ice Rink String Sounds - Do Nothing (03:41)
03. The Specials - Ghost Town (03:41)
04. Rhoda With The Special A.K.A. - The Boiler (05:44)
05. Rico & The Special A.K.A. - Jungle Music (04:02)
06. The Appolinaires - The Feeling's Gone (Dance Mix)- The Feeling's Back (08:32)
07. The Higsons - Tear The Whole Thing Down (03:31)
08. The Appolinaires - Envy The Love (04:02)
09. The Special A.K.A. - War Crimes (The Crime Remains The Same) (04:02)
10. The Higsons - Run Me Down (03:52)
11. The Special A.K.A. - Racist Friend (03:37)
12. The Special A.K.A. - Nelson Mandela (04:15)
13. The Special A.K.A. - What I Like Most About You Is Your Girlfriend (04:03)
14. The Friday Club - Window Shopping (03:53)
15. J.B.'s Allstars - The Alphabet Army (03:08)

CD3:

01. Madness - Madness (02:26)
02. The Selecter - Too Much Pressure (02:51)
03. The Specials Featuring Rico - Nite Klub (03:09)
04. The Beat - Ranking Full Stop (02:51)
05. Elvis Costello & The Attractions - Girls Talk (01:56)
06. The Specials - Guns Of Navarone (02:20)
07. The Specials - Longshot Kick The Bucket- Liquidator- Skinhead Moonstomp (06:40)
08. The Selecter - James Bond (02:19)
09. The Bodysnatchers - Ruder Than You (02:52)
10. The Selecter - Carry Go Bring Come (Live 1979) (03:13)
11. The Specials - Rude Boys Outa Jail (02:42)
12. The Bodysnatchers - Too Experienced (02:34)
13. The Specials - International Jet Set (04:16)
14. The Swinging Cats - Away (03:14)
15. Rico - Carolina (04:18)
16. The Specials - Maggie's Farm (03:33)
17. The Specials - Why (02:56)
18. The Specials - Friday Night, Saturday Morning (03:33)

CD4:

01. Rhoda With The Special A.K.A. - Theme From The Boiler (04:12)
02. Rico And The Special A.K.A. - Rasta Call You (03:38)
03. Rico And The Special A.K.A. - Easter Island (04:10)
04. The Appolinaires - The Feeling's Gone (03:49)
05. The Appolinaires - The Bongo Medley (Extremely Long Version) (02:51)
06. The Higsons - Ylang Ylang (04:55)
07. The Appolinaires - Give It Up (03:32)
08. The Special A.K.A. - Version (03:44)
09. The Higsons - Put The Punk Back Into Funk (05:25)
10. The Special A.K.A. - Bright Lights (04:07)
11. The Special A.K.A. - Rascist Friend (Instrumental) (04:07)
12. The Special A.K.A. - Bright Lights (Instrumental) (04:38)
13. The Special A.K.A. - Break Down The Door (03:49)
14. The Special A.K.A. - Can't Get A Break (04:56)
15. The Friday Club - Window Shopping (Instrumental) (03:17)
16. J.B.'s Allstars - Al Arm (03:36)
17. Roddy Radiation & The Specials - Braggin' And Tryin' Not To Lie (03:24)
18. Neville Staples AKA Judge Roughneck - Rude Boys Outa Jail (Version) (04:07)
19. The Special A.K.A. - Racquel (01:58)
20. The Bodysnatchers - 007 (03:32)


Exact Audio Copy V1.0 beta 4 from 7. December 2014

EAC extraction logfile from 25. December 2015, 13:49

Various Artists / The Compact 2 Tone Story (Disc 1)

Used drive : TSSTcorpCDDVDW SH-224DB Adapter: 1 ID: 0

Read mode : Secure
Utilize accurate stream : Yes
Defeat audio cache : Yes
Make use of C2 pointers : No

Read offset correction : 6
Overread into Lead-In and Lead-Out : No
Fill up missing offset samples with silence : Yes
Delete leading and trailing silent blocks : No
Null samples used in CRC calculations : Yes
Used interface : Native Win32 interface for Win NT & 2000
Gap handling : Appended to previous track

Used output format : User Defined Encoder
Selected bitrate : 896 kBit/s
Quality : High
Add ID3 tag : No
Command line compressor : C:Program FilesExact Audio CopyFlacflac.exe
Additional command line options : -6 -V -T "ARTIST=%artist%" -T "TITLE=%title%" -T "ALBUM=%albumtitle%" -T "DATE=%year%" -T "TRACKNUMBER=%tracknr%" -T "GENRE=%genre%" -T "COMMENT=%comment%" %source% -o %dest%


TOC of the extracted CD

Track | Start | Length | Start sector | End sector
––––––––––––––––––––––––––––-
1 | 0:00.32 | 2:49.55 | 32 | 12761
2 | 2:50.12 | 3:01.00 | 12762 | 26336
3 | 5:51.12 | 2:31.70 | 26337 | 37731
4 | 8:23.07 | 3:14.18 | 37732 | 52299
5 | 11:37.25 | 2:55.62 | 52300 | 65486
6 | 14:33.12 | 2:43.05 | 65487 | 77716
7 | 17:16.17 | 2:07.63 | 77717 | 87304
8 | 19:24.05 | 2:06.00 | 87305 | 96754
9 | 21:30.05 | 3:04.07 | 96755 | 110561
10 | 24:34.12 | 2:57.05 | 110562 | 123841
11 | 27:31.17 | 3:22.13 | 123842 | 139004
12 | 30:53.30 | 3:10.55 | 139005 | 153309
13 | 34:04.10 | 3:14.02 | 153310 | 167861
14 | 37:18.12 | 3:53.03 | 167862 | 185339
15 | 41:11.15 | 3:17.22 | 185340 | 200136


Track 1

Filename C:New Folder1 - The Special A.K.A. - Gangsters.wav

Pre-gap length 0:00:02.32

Peak level 100.0 %
Extraction speed 1.9 X
Track quality 100.0 %
Test CRC 8D1F2DDB
Copy CRC 8D1F2DDB
Accurately ripped (confidence 4) [DA1190D2] (AR v2)
Copy OK

Track 2

Filename C:New Folder2 - The Selecter - The Selecter.wav

Pre-gap length 0:00:02.15

Peak level 90.1 %
Extraction speed 1.9 X
Track quality 100.0 %
Test CRC 076ABC0C
Copy CRC 076ABC0C
Accurately ripped (confidence 4) [B95BB328] (AR v2)
Copy OK

Track 3

Filename C:New Folder3 - Madness - The Prince.wav

Pre-gap length 0:00:01.65

Peak level 96.1 %
Extraction speed 1.9 X
Track quality 100.0 %
Test CRC E12EB07B
Copy CRC E12EB07B
Accurately ripped (confidence 4) [3BD782AF] (AR v2)
Copy OK

Track 4

Filename C:New Folder4 - The Selecter - On My Radio.wav

Pre-gap length 0:00:01.65

Peak level 100.0 %
Extraction speed 1.9 X
Track quality 100.0 %
Test CRC B87CAE90
Copy CRC B87CAE90
Accurately ripped (confidence 4) [AEC9306D] (AR v2)
Copy OK

Track 5

Filename C:New Folder5 - The Specials Featuring Rico - A Message To You Rudy.wav

Pre-gap length 0:00:01.70

Peak level 91.4 %
Extraction speed 1.9 X
Track quality 100.0 %
Test CRC 73C730B5
Copy CRC 73C730B5
Accurately ripped (confidence 4) [55A78B78] (AR v2)
Copy OK

Track 6

Filename C:New Folder6 - The Beat - Tears Of A Clown.wav

Pre-gap length 0:00:01.12

Peak level 100.0 %
Extraction speed 1.9 X
Track quality 100.0 %
Test CRC 66551A41
Copy CRC 66551A41
Accurately ripped (confidence 4) [3C01EE91] (AR v2)
Copy OK

Track 7

Filename C:New Folder7 - Elvis Costello & The Attractions - I Can't Stand Up For Falling Down.wav

Pre-gap length 0:00:01.40

Peak level 100.0 %
Extraction speed 1.8 X
Track quality 100.0 %
Test CRC 1136BC18
Copy CRC 1136BC18
Accurately ripped (confidence 4) [B3F99B00] (AR v2)
Copy OK

Track 8

Filename C:New Folder8 - The Specials - Too Much Too Young.wav

Pre-gap length 0:00:01.33

Peak level 98.8 %
Extraction speed 1.8 X
Track quality 100.0 %
Test CRC 49730664
Copy CRC 49730664
Accurately ripped (confidence 4) [D9F7531C] (AR v2)
Copy OK

Track 9

Filename C:New Folder9 - The Selecter - Three Minute Hero.wav

Pre-gap length 0:00:02.00

Peak level 100.0 %
Extraction speed 2.0 X
Track quality 100.0 %
Test CRC E45714B9
Copy CRC E45714B9
Accurately ripped (confidence 4) [664EAAC6] (AR v2)
Copy OK

Track 10

Filename C:New Folder10 - The Bodysnatchers - People Do Rock Steady.wav

Pre-gap length 0:00:01.52

Peak level 87.0 %
Extraction speed 2.0 X
Track quality 100.0 %
Test CRC 5F05848E
Copy CRC 5F05848E
Accurately ripped (confidence 4) [1F9AB280] (AR v2)
Copy OK

Track 11

Filename C:New Folder11 - The Selecter - Missing Words.wav

Pre-gap length 0:00:01.27

Peak level 81.1 %
Extraction speed 1.7 X
Track quality 99.9 %
Test CRC 070816A0
Copy CRC 070816A0
Accurately ripped (confidence 4) [1AAB107D] (AR v2)
Copy OK

Track 12

Filename C:New Folder12 - The Specials - Rat Race.wav

Pre-gap length 0:00:01.68

Peak level 97.7 %
Extraction speed 2.0 X
Track quality 100.0 %
Test CRC A21FCFF2
Copy CRC A21FCFF2
Accurately ripped (confidence 4) [E943C9AD] (AR v2)
Copy OK

Track 13

Filename C:New Folder13 - The Bodysnatchers - Easy Life.wav

Pre-gap length 0:00:01.33

Peak level 97.9 %
Extraction speed 2.0 X
Track quality 100.0 %
Test CRC E2203204
Copy CRC E2203204
Accurately ripped (confidence 4) [62224AFA] (AR v2)
Copy OK

Track 14

Filename C:New Folder14 - The Specials - Stereotype.wav

Pre-gap length 0:00:01.45

Peak level 100.0 %
Extraction speed 1.8 X
Track quality 99.9 %
Test CRC 413DA680
Copy CRC 413DA680
Accurately ripped (confidence 4) [7E124CC1] (AR v2)
Copy OK

Track 15

Filename C:New Folder15 - The Swinging Cats - Mantovani.wav

Pre-gap length 0:00:01.70

Peak level 100.0 %
Extraction speed 2.0 X
Track quality 100.0 %
Test CRC 8279842C
Copy CRC 8279842C
Accurately ripped (confidence 4) [C626F186] (AR v2)
Copy OK


All tracks accurately ripped

No errors occurred

End of status report

–– CUETools DB Plugin V2.1.4

[CTDB TOCID: eZuby2SI4qUyp.3rLd2vtYWBrFk-] found
Submit result: eZuby2SI4qUyp.3rLd2vtYWBrFk- has been confirmed
Track | CTDB Status
1 | (3/3) Accurately ripped
2 | (3/3) Accurately ripped
3 | (3/3) Accurately ripped
4 | (3/3) Accurately ripped
5 | (3/3) Accurately ripped
6 | (3/3) Accurately ripped
7 | (3/3) Accurately ripped
8 | (3/3) Accurately ripped
9 | (3/3) Accurately ripped
10 | (3/3) Accurately ripped
11 | (3/3) Accurately ripped
12 | (3/3) Accurately ripped
13 | (3/3) Accurately ripped
14 | (3/3) Accurately ripped
15 | (3/3) Accurately ripped


==== Log checksum DD107E934F0E4AFD6776DBED5CBC5F644FD4EE61869E0AB88A3C5EA95280CF44 ====

foobar2000 1.2 / Dynamic Range Meter 1.1.1
log date: 2016-02-06 22:29:05

––––––––––––––––––––––––––––––––––––––––
Analyzed: Elvis Costello & The Attractions / The Compact 2 Tone Story (Disc 1) (1)
Madness / The Compact 2 Tone Story (Disc 1) (2)
The Beat / The Compact 2 Tone Story (Disc 1) (3)
The Bodysnatchers / The Compact 2 Tone Story (Disc 1) (4-5)
The Selecter / The Compact 2 Tone Story (Disc 1) (6-9)
The Special A.K.A. / The Compact 2 Tone Story (Disc 1) (10)
The Specials Featuring Rico / The Compact 2 Tone Story (Disc 1) (11)
The Specials / The Compact 2 Tone Story (Disc 1) (12-14)
The Swinging Cats / The Compact 2 Tone Story (Disc 1) (15)
––––––––––––––––––––––––––––––––––––––––

DR Peak RMS Duration Track
––––––––––––––––––––––––––––––––––––––––
DR11 0.00 dB -11.96 dB 2:08 07-I Can't Stand Up For Falling Down
DR12 -0.34 dB -14.46 dB 2:32 03-The Prince
DR13 0.00 dB -14.51 dB 2:43 06-Tears Of A Clown
DR13 -1.20 dB -15.92 dB 2:57 10-People Do Rock Steady
DR12 -0.18 dB -13.13 dB 3:14 13-Easy Life
DR12 -0.91 dB -14.83 dB 3:01 02-The Selecter
DR12 0.00 dB -14.16 dB 3:14 04-On My Radio
DR12 0.00 dB -13.06 dB 3:04 09-Three Minute Hero
DR12 -1.81 dB -14.99 dB 3:22 11-Missing Words
DR11 0.00 dB -11.89 dB 2:50 01-Gangsters
DR13 -0.77 dB -16.46 dB 2:56 05-A Message To You Rudy
DR10 -0.10 dB -12.84 dB 2:06 08-Too Much Too Young
DR12 -0.20 dB -13.36 dB 3:11 12-Rat Race
DR13 0.00 dB -14.83 dB 3:53 14-Stereotype
DR10 0.00 dB -11.19 dB 3:17 15-Mantovani
––––––––––––––––––––––––––––––––––––––––

Number of tracks: 15
Official DR value: DR12

Samplerate: 44100 Hz
Channels: 2
Bits per sample: 16
Bitrate: 915 kbps
Codec: FLAC
================================================================================


Exact Audio Copy V1.0 beta 4 from 7. December 2014

EAC extraction logfile from 25. December 2015, 16:06

Various Artists / The Compact 2 Tone Story (Disc 2)

Used drive : TSSTcorpCDDVDW SH-224DB Adapter: 1 ID: 0

Read mode : Secure
Utilize accurate stream : Yes
Defeat audio cache : Yes
Make use of C2 pointers : No

Read offset correction : 6
Overread into Lead-In and Lead-Out : No
Fill up missing offset samples with silence : Yes
Delete leading and trailing silent blocks : No
Null samples used in CRC calculations : Yes
Used interface : Native Win32 interface for Win NT & 2000
Gap handling : Appended to previous track

Used output format : User Defined Encoder
Selected bitrate : 896 kBit/s
Quality : High
Add ID3 tag : No
Command line compressor : C:Program FilesExact Audio CopyFlacflac.exe
Additional command line options : -6 -V -T "ARTIST=%artist%" -T "TITLE=%title%" -T "ALBUM=%albumtitle%" -T "DATE=%year%" -T "TRACKNUMBER=%tracknr%" -T "GENRE=%genre%" -T "COMMENT=%comment%" %source% -o %dest%


TOC of the extracted CD

Track | Start | Length | Start sector | End sector
––––––––––––––––––––––––––––-
1 | 0:00.32 | 3:02.53 | 32 | 13734
2 | 3:03.10 | 3:41.05 | 13735 | 30314
3 | 6:44.15 | 3:41.72 | 30315 | 46961
4 | 10:26.12 | 5:44.70 | 46962 | 72831
5 | 16:11.07 | 4:02.03 | 72832 | 90984
6 | 20:13.10 | 8:32.02 | 90985 | 129386
7 | 28:45.12 | 3:31.70 | 129387 | 145281
8 | 32:17.07 | 4:02.03 | 145282 | 163434
9 | 36:19.10 | 4:02.12 | 163435 | 181596
10 | 40:21.22 | 3:52.08 | 181597 | 199004
11 | 44:13.30 | 3:37.57 | 199005 | 215336
12 | 47:51.12 | 4:15.00 | 215337 | 234461
13 | 52:06.12 | 4:03.65 | 234462 | 252751
14 | 56:10.02 | 3:53.30 | 252752 | 270256
15 | 60:03.32 | 3:08.00 | 270257 | 284356


Track 1

Filename C:New Folder1 - Rico - Sea Cruise.wav

Pre-gap length 0:00:02.32

Peak level 95.5 %
Extraction speed 1.9 X
Track quality 100.0 %
Test CRC 40C059AF
Copy CRC 40C059AF
Accurately ripped (confidence 4) [26F1891D] (AR v2)
Copy OK

Track 2

Filename C:New Folder2 - The Specials Featuring Rico With The Ice Rink String Sounds - Do Nothing.wav

Pre-gap length 0:00:01.68

Peak level 95.7 %
Extraction speed 1.7 X
Track quality 99.9 %
Test CRC AA1DBC6B
Copy CRC AA1DBC6B
Accurately ripped (confidence 4) [6DE5A2A3] (AR v2)
Copy OK

Track 3

Filename C:New Folder3 - The Specials - Ghost Town.wav

Pre-gap length 0:00:01.70

Peak level 88.9 %
Extraction speed 2.0 X
Track quality 100.0 %
Test CRC 35A99704
Copy CRC 35A99704
Accurately ripped (confidence 4) [1D2922CE] (AR v2)
Copy OK

Track 4

Filename C:New Folder4 - Rhoda With The Special A.K.A. - The Boiler.wav

Pre-gap length 0:00:01.70

Peak level 96.8 %
Extraction speed 1.9 X
Track quality 99.9 %
Test CRC 34773782
Copy CRC 34773782
Accurately ripped (confidence 4) [2F01EE62] (AR v2)
Copy OK

Track 5

Filename C:New Folder5 - Rico & The Special A.K.A. - Jungle Music.wav

Pre-gap length 0:00:01.15

Peak level 97.1 %
Extraction speed 1.8 X
Track quality 99.9 %
Test CRC 069BF1B5
Copy CRC 069BF1B5
Accurately ripped (confidence 4) [34E66293] (AR v2)
Copy OK

Track 6

Filename C:New Folder6 - The Appolinaires - The Feeling's Gone (Dance Mix)- The Feeling's Back.wav

Pre-gap length 0:00:02.33

Peak level 95.2 %
Extraction speed 2.2 X
Track quality 100.0 %
Test CRC 9024A579
Copy CRC 9024A579
Accurately ripped (confidence 4) [DB81B157] (AR v2)
Copy OK

Track 7

Filename C:New Folder7 - The Higsons - Tear The Whole Thing Down.wav

Pre-gap length 0:00:01.62

Peak level 95.2 %
Extraction speed 2.0 X
Track quality 100.0 %
Test CRC 95986738
Copy CRC 95986738
Accurately ripped (confidence 4) [61486873] (AR v2)
Copy OK

Track 8

Filename C:New Folder8 - The Appolinaires - Envy The Love.wav

Pre-gap length 0:00:02.05

Peak level 100.0 %
Extraction speed 1.8 X
Track quality 99.9 %
Test CRC 2088D575
Copy CRC 2088D575
Accurately ripped (confidence 4) [E22CDEC4] (AR v2)
Copy OK

Track 9

Filename C:New Folder9 - The Special A.K.A. - War Crimes (The Crime Remains The Same).wav

Pre-gap length 0:00:01.33

Peak level 96.2 %
Extraction speed 2.1 X
Track quality 100.0 %
Test CRC BF7A1603
Copy CRC BF7A1603
Accurately ripped (confidence 4) [0B005A87] (AR v2)
Copy OK

Track 10

Filename C:New Folder10 - The Higsons - Run Me Down.wav

Pre-gap length 0:00:01.57

Peak level 98.8 %
Extraction speed 2.1 X
Track quality 100.0 %
Test CRC 562678A4
Copy CRC 562678A4
Accurately ripped (confidence 4) [8E9875D2] (AR v2)
Copy OK

Track 11

Filename C:New Folder11 - The Special A.K.A. - Racist Friend.wav

Pre-gap length 0:00:01.73

Peak level 94.0 %
Extraction speed 1.8 X
Track quality 99.9 %
Test CRC 24676C09
Copy CRC 24676C09
Accurately ripped (confidence 4) [4BC8C3F2] (AR v2)
Copy OK

Track 12

Filename C:New Folder12 - The Special A.K.A. - Nelson Mandela.wav

Pre-gap length 0:00:01.70

Peak level 100.0 %
Extraction speed 2.1 X
Track quality 100.0 %
Test CRC 7A71FB58
Copy CRC 7A71FB58
Accurately ripped (confidence 4) [0DB8C1D9] (AR v2)
Copy OK

Track 13

Filename C:New Folder13 - The Special A.K.A. - What I Like Most About You Is Your Girlfriend.wav

Pre-gap length 0:00:02.27

Peak level 100.0 %
Extraction speed 2.1 X
Track quality 100.0 %
Test CRC 34728601
Copy CRC 34728601
Accurately ripped (confidence 4) [8B9E1633] (AR v2)
Copy OK

Track 14

Filename C:New Folder14 - The Friday Club - Window Shopping.wav

Pre-gap length 0:00:02.22

Peak level 99.7 %
Extraction speed 1.8 X
Track quality 99.9 %
Test CRC 0BD31464
Copy CRC 0BD31464
Accurately ripped (confidence 4) [1AF43FF1] (AR v2)
Copy OK

Track 15

Filename C:New Folder15 - J.B.'s Allstars - The Alphabet Army.wav

Pre-gap length 0:00:01.50

Peak level 96.7 %
Extraction speed 2.0 X
Track quality 100.0 %
Test CRC F81D2CB2
Copy CRC F81D2CB2
Accurately ripped (confidence 4) [C8DC8BA8] (AR v2)
Copy OK


All tracks accurately ripped

No errors occurred

End of status report

–– CUETools DB Plugin V2.1.4

[CTDB TOCID: 9BhtAc9xv3KgBGniAFSCMHpP7Pg-] found
Submit result: 9BhtAc9xv3KgBGniAFSCMHpP7Pg- has been confirmed
Track | CTDB Status
1 | (3/3) Accurately ripped
2 | (3/3) Accurately ripped
3 | (3/3) Accurately ripped
4 | (3/3) Accurately ripped
5 | (3/3) Accurately ripped
6 | (3/3) Accurately ripped
7 | (3/3) Accurately ripped
8 | (3/3) Accurately ripped
9 | (3/3) Accurately ripped
10 | (3/3) Accurately ripped
11 | (3/3) Accurately ripped
12 | (3/3) Accurately ripped
13 | (3/3) Accurately ripped
14 | (3/3) Accurately ripped
15 | (3/3) Accurately ripped


==== Log checksum D27D941EF6E46FA0DFDD769533E41FC2B66BA9F37CBF6667C361C417082124C5 ====

foobar2000 1.2 / Dynamic Range Meter 1.1.1
log date: 2016-02-06 22:29:23

––––––––––––––––––––––––––––––––––––––––
Analyzed: The Appolinaires / The Compact 2 Tone Story (Disc 2) (1)
J.B.'s Allstars / The Compact 2 Tone Story (Disc 2) (2)
Rhoda With The Special A.K.A. / The Compact 2 Tone Story (Disc 2) (3)
Rico & The Special A.K.A. / The Compact 2 Tone Story (Disc 2) (4)
Rico / The Compact 2 Tone Story (Disc 2) (5)
The Appolinaires / The Compact 2 Tone Story (Disc 2) (6)
The Friday Club / The Compact 2 Tone Story (Disc 2) (7)
The Higsons / The Compact 2 Tone Story (Disc 2) (8-9)
The Special A.K.A. / The Compact 2 Tone Story (Disc 2) (10-13)
The Specials Featuring Rico With The Ice Rink String Sounds / The Compact 2 Tone Story (Disc 2) (14)
The Specials / The Compact 2 Tone Story (Disc 2) (15)
––––––––––––––––––––––––––––––––––––––––

DR Peak RMS Duration Track
––––––––––––––––––––––––––––––––––––––––
DR14 -0.42 dB -17.46 dB 8:32 06-The Feeling's Gone (Dance Mix)- The Feeling's Back
DR13 -0.28 dB -15.38 dB 3:08 15-The Alphabet Army
DR12 -0.28 dB -13.97 dB 5:45 04-The Boiler
DR12 -0.25 dB -14.84 dB 4:02 05-Jungle Music
DR13 -0.39 dB -14.18 dB 3:03 01-Sea Cruise
DR14 0.00 dB -15.62 dB 4:02 08-Envy The Love
DR13 -0.02 dB -14.39 dB 3:53 14-Window Shopping
DR13 -0.42 dB -15.36 dB 3:32 07-Tear The Whole Thing Down
DR14 -0.10 dB -15.75 dB 3:52 10-Run Me Down
DR12 -0.34 dB -14.45 dB 4:02 09-War Crimes (The Crime Remains The Same)
DR12 -0.54 dB -14.93 dB 3:38 11-Racist Friend
DR14 0.00 dB -15.06 dB 4:15 12-Nelson Mandela
DR14 0.00 dB -15.63 dB 4:04 13-What I Like Most About You Is Your Girlfriend
DR12 -0.38 dB -13.58 dB 3:41 02-Do Nothing
DR11 -1.02 dB -13.18 dB 3:42 03-Ghost Town
––––––––––––––––––––––––––––––––––––––––

Number of tracks: 15
Official DR value: DR13

Samplerate: 44100 Hz
Channels: 2
Bits per sample: 16
Bitrate: 812 kbps
Codec: FLAC
================================================================================


Exact Audio Copy V1.0 beta 4 from 7. December 2014

EAC extraction logfile from 25. December 2015, 19:26

Various Artists / The Compact 2 Tone Story (Disc 3)

Used drive : TSSTcorpCDDVDW SH-224DB Adapter: 1 ID: 0

Read mode : Secure
Utilize accurate stream : Yes
Defeat audio cache : Yes
Make use of C2 pointers : No

Read offset correction : 6
Overread into Lead-In and Lead-Out : No
Fill up missing offset samples with silence : Yes
Delete leading and trailing silent blocks : No
Null samples used in CRC calculations : Yes
Used interface : Native Win32 interface for Win NT & 2000
Gap handling : Appended to previous track

Used output format : User Defined Encoder
Selected bitrate : 896 kBit/s
Quality : High
Add ID3 tag : No
Command line compressor : C:Program FilesExact Audio CopyFlacflac.exe
Additional command line options : -6 -V -T "ARTIST=%artist%" -T "TITLE=%title%" -T "ALBUM=%albumtitle%" -T "DATE=%year%" -T "TRACKNUMBER=%tracknr%" -T "GENRE=%genre%" -T "COMMENT=%comment%" %source% -o %dest%


TOC of the extracted CD

Track | Start | Length | Start sector | End sector
––––––––––––––––––––––––––––-
1 | 0:00.32 | 2:26.48 | 32 | 11029
2 | 2:27.05 | 2:51.05 | 11030 | 23859
3 | 5:18.10 | 3:09.00 | 23860 | 38034
4 | 8:27.10 | 2:51.02 | 38035 | 50861
5 | 11:18.12 | 1:56.08 | 50862 | 59569
6 | 13:14.20 | 2:20.00 | 59570 | 70069
7 | 15:34.20 | 6:40.72 | 70070 | 100141
8 | 22:15.17 | 2:19.65 | 100142 | 110631
9 | 24:35.07 | 2:52.18 | 110632 | 123549
10 | 27:27.25 | 3:13.60 | 123550 | 138084
11 | 30:41.10 | 2:42.17 | 138085 | 150251
12 | 33:23.27 | 2:34.68 | 150252 | 161869
13 | 35:58.20 | 4:16.65 | 161870 | 181134
14 | 40:15.10 | 3:14.12 | 181135 | 195696
15 | 43:29.22 | 4:18.65 | 195697 | 215111
16 | 47:48.12 | 3:33.05 | 215112 | 231091
17 | 51:21.17 | 2:56.15 | 231092 | 244306
18 | 54:17.32 | 3:33.55 | 244307 | 260336


Track 1

Filename C:New Folder1 - Madness - Madness.wav

Pre-gap length 0:00:02.32

Peak level 100.0 %
Extraction speed 1.8 X
Track quality 100.0 %
Test CRC 8E3525CE
Copy CRC 8E3525CE
Accurately ripped (confidence 4) [6FE0507A] (AR v2)
Copy OK

Track 2

Filename C:New Folder2 - The Selecter - Too Much Pressure.wav

Pre-gap length 0:00:02.30

Peak level 95.5 %
Extraction speed 2.0 X
Track quality 100.0 %
Test CRC 2AE29500
Copy CRC 2AE29500
Accurately ripped (confidence 4) [9811DE46] (AR v2)
Copy OK

Track 3

Filename C:New Folder3 - The Specials Featuring Rico - Nite Klub.wav

Pre-gap length 0:00:01.38

Peak level 98.3 %
Extraction speed 1.9 X
Track quality 100.0 %
Test CRC 1CBCF2A7
Copy CRC 1CBCF2A7
Accurately ripped (confidence 4) [3791912C] (AR v2)
Copy OK

Track 4

Filename C:New Folder4 - The Beat - Ranking Full Stop.wav

Pre-gap length 0:00:01.50

Peak level 100.0 %
Extraction speed 1.9 X
Track quality 100.0 %
Test CRC B67AC432
Copy CRC B67AC432
Accurately ripped (confidence 4) [8B9F3C78] (AR v2)
Copy OK

Track 5

Filename C:New Folder5 - Elvis Costello & The Attractions - Girls Talk.wav

Pre-gap length 0:00:02.07

Peak level 96.0 %
Extraction speed 1.7 X
Track quality 100.0 %
Test CRC C818A8E3
Copy CRC C818A8E3
Accurately ripped (confidence 4) [CC8152A0] (AR v2)
Copy OK

Track 6

Filename C:New Folder6 - The Specials - Guns Of Navarone.wav

Pre-gap length 0:00:01.45

Peak level 96.2 %
Extraction speed 1.8 X
Track quality 100.0 %
Test CRC 1A94016B
Copy CRC 1A94016B
Accurately ripped (confidence 4) [2414A47B] (AR v2)
Copy OK

Track 7

Filename C:New Folder7 - The Specials - Longshot Kick The Bucket- Liquidator- Skinhead Moonstomp.wav

Pre-gap length 0:00:00.73

Peak level 91.7 %
Extraction speed 2.2 X
Track quality 100.0 %
Test CRC 71EB11C7
Copy CRC 71EB11C7
Accurately ripped (confidence 4) [D2ECBC69] (AR v2)
Copy OK

Track 8

Filename C:New Folder8 - The Selecter - James Bond.wav

Pre-gap length 0:00:02.10

Peak level 96.1 %
Extraction speed 1.9 X
Track quality 100.0 %
Test CRC 25F2164B
Copy CRC 25F2164B
Accurately ripped (confidence 4) [76635AF7] (AR v2)
Copy OK

Track 9

Filename C:New Folder9 - The Bodysnatchers - Ruder Than You.wav

Pre-gap length 0:00:01.30

Peak level 95.3 %
Extraction speed 2.0 X
Track quality 100.0 %
Test CRC 39F571ED
Copy CRC 39F571ED
Accurately ripped (confidence 4) [8C6BD68D] (AR v2)
Copy OK

Track 10

Filename C:New Folder10 - The Selecter - Carry Go Bring Come (Live 1979).wav

Pre-gap length 0:00:01.60

Peak level 99.9 %
Extraction speed 2.0 X
Track quality 100.0 %
Test CRC F95A0D70
Copy CRC F95A0D70
Accurately ripped (confidence 4) [F8259196] (AR v2)
Copy OK

Track 11

Filename C:New Folder11 - The Specials - Rude Boys Outa Jail.wav

Pre-gap length 0:00:01.35

Peak level 92.0 %
Extraction speed 1.9 X
Track quality 100.0 %
Test CRC 02504E0B
Copy CRC 02504E0B
Accurately ripped (confidence 4) [899A40C4] (AR v2)
Copy OK

Track 12

Filename C:New Folder12 - The Bodysnatchers - Too Experienced.wav

Pre-gap length 0:00:01.27

Peak level 93.2 %
Extraction speed 1.9 X
Track quality 100.0 %
Test CRC 697930E2
Copy CRC 697930E2
Accurately ripped (confidence 4) [AC698447] (AR v2)
Copy OK

Track 13

Filename C:New Folder13 - The Specials - International Jet Set.wav

Pre-gap length 0:00:01.05

Peak level 92.8 %
Extraction speed 2.1 X
Track quality 100.0 %
Test CRC E8B3DD49
Copy CRC E8B3DD49
Accurately ripped (confidence 4) [EB0BA508] (AR v2)
Copy OK

Track 14

Filename C:New Folder14 - The Swinging Cats - Away.wav

Pre-gap length 0:00:02.35

Peak level 100.0 %
Extraction speed 2.0 X
Track quality 100.0 %
Test CRC 3770CF84
Copy CRC 3770CF84
Accurately ripped (confidence 4) [DB05C37E] (AR v2)
Copy OK

Track 15

Filename C:New Folder15 - Rico - Carolina.wav

Pre-gap length 0:00:01.47

Peak level 94.6 %
Extraction speed 2.1 X
Track quality 100.0 %
Test CRC 4C75FC96
Copy CRC 4C75FC96
Accurately ripped (confidence 4) [652B16B5] (AR v2)
Copy OK

Track 16

Filename C:New Folder16 - The Specials - Maggie's Farm.wav

Pre-gap length 0:00:01.65

Peak level 93.8 %
Extraction speed 2.0 X
Track quality 100.0 %
Test CRC 4B7876E9
Copy CRC 4B7876E9
Accurately ripped (confidence 4) [B4AF258F] (AR v2)
Copy OK

Track 17

Filename C:New Folder17 - The Specials - Why.wav

Pre-gap length 0:00:02.30

Peak level 96.0 %
Extraction speed 2.0 X
Track quality 100.0 %
Test CRC 900CDFE2
Copy CRC 900CDFE2
Accurately ripped (confidence 4) [75F839E2] (AR v2)
Copy OK

Track 18

Filename C:New Folder18 - The Specials - Friday Night, Saturday Morning.wav

Pre-gap length 0:00:00.02

Peak level 95.3 %
Extraction speed 2.1 X
Track quality 100.0 %
Test CRC E940756F
Copy CRC E940756F
Accurately ripped (confidence 4) [D1F024C0] (AR v2)
Copy OK


All tracks accurately ripped

No errors occurred

End of status report

–– CUETools DB Plugin V2.1.4

[CTDB TOCID: GFkfZ2hoRnZ86_gb9LNbnwMydUc-] found
Submit result: GFkfZ2hoRnZ86_gb9LNbnwMydUc- has been confirmed
Track | CTDB Status
1 | (2/2) Accurately ripped
2 | (2/2) Accurately ripped
3 | (2/2) Accurately ripped
4 | (2/2) Accurately ripped
5 | (2/2) Accurately ripped
6 | (2/2) Accurately ripped
7 | (2/2) Accurately ripped
8 | (2/2) Accurately ripped
9 | (2/2) Accurately ripped
10 | (2/2) Accurately ripped
11 | (2/2) Accurately ripped
12 | (2/2) Accurately ripped
13 | (2/2) Accurately ripped
14 | (2/2) Accurately ripped
15 | (2/2) Accurately ripped
16 | (2/2) Accurately ripped
17 | (2/2) Accurately ripped
18 | (2/2) Accurately ripped


==== Log checksum AF06CAB9D8B2CF940DFE5F5D60A6340808A2A0006248E707A74D6C54870182DC ====

foobar2000 1.2 / Dynamic Range Meter 1.1.1
log date: 2016-02-06 22:29:39

––––––––––––––––––––––––––––––––––––––––
Analyzed: Elvis Costello & The Attractions / The Compact 2 Tone Story (Disc 3) (1)
Madness / The Compact 2 Tone Story (Disc 3) (2)
Rico / The Compact 2 Tone Story (Disc 3) (3)
The Beat / The Compact 2 Tone Story (Disc 3) (4)
The Bodysnatchers / The Compact 2 Tone Story (Disc 3) (5-6)
The Selecter / The Compact 2 Tone Story (Disc 3) (7-9)
The Specials Featuring Rico / The Compact 2 Tone Story (Disc 3) (10)
The Specials / The Compact 2 Tone Story (Disc 3) (11-17)
The Swinging Cats / The Compact 2 Tone Story (Disc 3) (18)
––––––––––––––––––––––––––––––––––––––––

DR Peak RMS Duration Track
––––––––––––––––––––––––––––––––––––––––
DR11 -0.35 dB -13.07 dB 1:56 05-Girls Talk
DR13 0.00 dB -14.23 dB 2:27 01-Madness
DR14 -0.48 dB -16.26 dB 4:19 15-Carolina
DR13 0.00 dB -13.84 dB 2:51 04-Ranking Full Stop
DR12 -0.42 dB -14.09 dB 2:52 09-Ruder Than You
DR10 -0.61 dB -12.02 dB 2:35 12-Too Experienced
DR12 -0.40 dB -13.73 dB 2:51 02-Too Much Pressure
DR12 -0.34 dB -14.95 dB 2:20 08-James Bond
DR12 0.00 dB -13.42 dB 3:14 10-Carry Go Bring Come (Live 1979)
DR12 -0.14 dB -14.59 dB 3:09 03-Nite Klub
DR11 -0.33 dB -12.73 dB 2:20 06-Guns Of Navarone
DR10 -0.75 dB -13.77 dB 6:41 07-Longshot Kick The Bucket- Liquidator- Skinhead Moonstomp
DR12 -0.72 dB -13.98 dB 2:42 11-Rude Boys Outa Jail
DR12 -0.64 dB -14.53 dB 4:17 13-International Jet Set
DR11 -0.55 dB -14.06 dB 3:33 16-Maggie's Farm
DR12 -0.35 dB -14.00 dB 2:56 17-Why
DR11 -0.41 dB -13.48 dB 3:34 18-Friday Night, Saturday Morning
DR11 0.00 dB -12.69 dB 3:14 14-Away
––––––––––––––––––––––––––––––––––––––––

Number of tracks: 18
Official DR value: DR12

Samplerate: 44100 Hz
Channels: 2
Bits per sample: 16
Bitrate: 856 kbps
Codec: FLAC
================================================================================


Exact Audio Copy V1.0 beta 4 from 7. December 2014

EAC extraction logfile from 25. December 2015, 20:53

Various Artists / The Compact 2 Tone Story (Disc 4)

Used drive : TSSTcorpCDDVDW SH-224DB Adapter: 1 ID: 0

Read mode : Secure
Utilize accurate stream : Yes
Defeat audio cache : Yes
Make use of C2 pointers : No

Read offset correction : 6
Overread into Lead-In and Lead-Out : No
Fill up missing offset samples with silence : Yes
Delete leading and trailing silent blocks : No
Null samples used in CRC calculations : Yes
Used interface : Native Win32 interface for Win NT & 2000
Gap handling : Appended to previous track

Used output format : User Defined Encoder
Selected bitrate : 896 kBit/s
Quality : High
Add ID3 tag : No
Command line compressor : C:Program FilesExact Audio CopyFlacflac.exe
Additional command line options : -6 -V -T "ARTIST=%artist%" -T "TITLE=%title%" -T "ALBUM=%albumtitle%" -T "DATE=%year%" -T "TRACKNUMBER=%tracknr%" -T "GENRE=%genre%" -T "COMMENT=%comment%" %source% -o %dest%


TOC of the extracted CD

Track | Start | Length | Start sector | End sector
––––––––––––––––––––––––––––-
1 | 0:00.32 | 4:12.03 | 32 | 18934
2 | 4:12.35 | 3:38.65 | 18935 | 35349
3 | 7:51.25 | 4:10.60 | 35350 | 54159
4 | 12:02.10 | 3:49.05 | 54160 | 71339
5 | 15:51.15 | 2:51.70 | 71340 | 84234
6 | 18:43.10 | 4:55.00 | 84235 | 106359
7 | 23:38.10 | 3:32.00 | 106360 | 122259
8 | 27:10.10 | 3:44.00 | 122260 | 139059
9 | 30:54.10 | 5:25.10 | 139060 | 163444
10 | 36:19.20 | 4:07.17 | 163445 | 181986
11 | 40:26.37 | 4:07.65 | 181987 | 200576
12 | 44:34.27 | 4:38.63 | 200577 | 221489
13 | 49:13.15 | 3:49.00 | 221490 | 238664
14 | 53:02.15 | 4:56.67 | 238665 | 260931
15 | 57:59.07 | 3:17.08 | 260932 | 275714
16 | 61:16.15 | 3:36.67 | 275715 | 291981
17 | 64:53.07 | 3:24.15 | 291982 | 307296
18 | 68:17.22 | 4:07.70 | 307297 | 325891
19 | 72:25.17 | 1:58.68 | 325892 | 334809
20 | 74:24.10 | 3:32.47 | 334810 | 350756


Track 1

Filename C:New Folder1 - Rhoda With The Special A.K.A. - Theme From The Boiler.wav

Pre-gap length 0:00:02.32

Peak level 100.0 %
Extraction speed 2.0 X
Track quality 100.0 %
Test CRC 931BC50A
Copy CRC 931BC50A
Accurately ripped (confidence 3) [5E4FF935] (AR v2)
Copy OK

Track 2

Filename C:New Folder2 - Rico And The Special A.K.A. - Rasta Call You.wav

Pre-gap length 0:00:01.48

Peak level 99.4 %
Extraction speed 2.0 X
Track quality 100.0 %
Test CRC E890C604
Copy CRC E890C604
Accurately ripped (confidence 3) [590713A7] (AR v2)
Copy OK

Track 3

Filename C:New Folder3 - Rico And The Special A.K.A. - Easter Island.wav

Pre-gap length 0:00:01.58

Peak level 97.1 %
Extraction speed 2.1 X
Track quality 100.0 %
Test CRC 23DE9029
Copy CRC 23DE9029
Accurately ripped (confidence 3) [F73CC712] (AR v2)
Copy OK

Track 4

Filename C:New Folder4 - The Appolinaires - The Feeling's Gone.wav

Pre-gap length 0:00:01.18

Peak level 100.0 %
Extraction speed 1.8 X
Track quality 99.9 %
Test CRC 41FB6CD0
Copy CRC 41FB6CD0
Accurately ripped (confidence 3) [9B8F9A69] (AR v2)
Copy OK

Track 5

Filename C:New Folder5 - The Appolinaires - The Bongo Medley (Extremely Long Version).wav

Pre-gap length 0:00:02.08

Peak level 100.0 %
Extraction speed 1.9 X
Track quality 100.0 %
Test CRC DB128116
Copy CRC DB128116
Accurately ripped (confidence 3) [D7DB3DD8] (AR v2)
Copy OK

Track 6

Filename C:New Folder6 - The Higsons - Ylang Ylang.wav

Pre-gap length 0:00:01.18

Peak level 96.2 %
Extraction speed 2.1 X
Track quality 100.0 %
Test CRC BA065F2A
Copy CRC BA065F2A
Accurately ripped (confidence 3) [54904207] (AR v2)
Copy OK

Track 7

Filename C:New Folder7 - The Appolinaires - Give It Up.wav

Pre-gap length 0:00:01.43

Peak level 97.4 %
Extraction speed 2.0 X
Track quality 100.0 %
Test CRC 0DD7263E
Copy CRC 0DD7263E
Accurately ripped (confidence 3) [A7762B70] (AR v2)
Copy OK

Track 8

Filename C:New Folder8 - The Special A.K.A. - Version.wav

Pre-gap length 0:00:01.13

Peak level 94.7 %
Extraction speed 2.0 X
Track quality 100.0 %
Test CRC 25DC9691
Copy CRC 25DC9691
Accurately ripped (confidence 3) [6027BB44] (AR v2)
Copy OK

Track 9

Filename C:New Folder9 - The Higsons - Put The Punk Back Into Funk.wav

Pre-gap length 0:00:01.60

Peak level 100.0 %
Extraction speed 2.1 X
Track quality 100.0 %
Test CRC 2E211AD6
Copy CRC 2E211AD6
Accurately ripped (confidence 3) [D08F8A25] (AR v2)
Copy OK

Track 10

Filename C:New Folder10 - The Special A.K.A. - Bright Lights.wav

Pre-gap length 0:00:01.73

Peak level 98.1 %
Extraction speed 2.1 X
Track quality 100.0 %
Test CRC 9661F167
Copy CRC 9661F167
Accurately ripped (confidence 3) [F84B8439] (AR v2)
Copy OK

Track 11

Filename C:New Folder11 - The Special A.K.A. - Rascist Friend (Instrumental).wav

Pre-gap length 0:00:01.60

Peak level 97.2 %
Extraction speed 2.1 X
Track quality 100.0 %
Test CRC D34239CC
Copy CRC D34239CC
Accurately ripped (confidence 3) [FE99217C] (AR v2)
Copy OK

Track 12

Filename C:New Folder12 - The Special A.K.A. - Bright Lights (Instrumental).wav

Pre-gap length 0:00:01.60

Peak level 95.2 %
Extraction speed 2.1 X
Track quality 100.0 %
Test CRC 851A5A4B
Copy CRC 851A5A4B
Accurately ripped (confidence 2) [F51CAAEE] (AR v2)
Copy OK

Track 13

Filename C:New Folder13 - The Special A.K.A. - Break Down The Door.wav

Pre-gap length 0:00:01.53

Peak level 97.2 %
Extraction speed 2.0 X
Track quality 100.0 %
Test CRC 6C68F44D
Copy CRC 6C68F44D
Accurately ripped (confidence 3) [B5051F33] (AR v2)
Copy OK

Track 14

Filename C:New Folder14 - The Special A.K.A. - Can't Get A Break.wav

Pre-gap length 0:00:02.20

Peak level 98.8 %
Extraction speed 2.1 X
Track quality 100.0 %
Test CRC 41905A3F
Copy CRC 41905A3F
Accurately ripped (confidence 3) [2207FE3A] (AR v2)
Copy OK

Track 15

Filename C:New Folder15 - The Friday Club - Window Shopping (Instrumental).wav

Pre-gap length 0:00:02.05

Peak level 100.0 %
Extraction speed 2.0 X
Track quality 100.0 %
Test CRC 2FB54E7D
Copy CRC 2FB54E7D
Accurately ripped (confidence 3) [8C080D7E] (AR v2)
Copy OK

Track 16

Filename C:New Folder16 - J.B.'s Allstars - Al Arm.wav

Pre-gap length 0:00:02.20

Peak level 100.0 %
Extraction speed 2.0 X
Track quality 100.0 %
Test CRC 65C324F8
Copy CRC 65C324F8
Accurately ripped (confidence 3) [2161C250] (AR v2)
Copy OK

Track 17

Filename C:New Folder17 - Roddy Radiation & The Specials - Braggin' And Tryin' Not To Lie.wav

Pre-gap length 0:00:01.32

Peak level 85.1 %
Extraction speed 1.8 X
Track quality 99.9 %
Test CRC 5A2A1852
Copy CRC 5A2A1852
Accurately ripped (confidence 3) [78696C27] (AR v2)
Copy OK

Track 18

Filename C:New Folder18 - Neville Staples AKA Judge Roughneck - Rude Boys Outa Jail (Version).wav

Pre-gap length 0:00:01.27

Peak level 100.0 %
Extraction speed 2.1 X
Track quality 100.0 %
Test CRC AFBFB934
Copy CRC AFBFB934
Accurately ripped (confidence 2) [2B77AF6E] (AR v2)
Copy OK

Track 19

Filename C:New Folder19 - The Special A.K.A. - Racquel.wav

Pre-gap length 0:00:01.10

Peak level 94.5 %
Extraction speed 1.8 X
Track quality 100.0 %
Test CRC B24DCBDF
Copy CRC B24DCBDF
Accurately ripped (confidence 3) [1FC809D8] (AR v2)
Copy OK

Track 20

Filename C:New Folder20 - The Bodysnatchers - 007.wav

Pre-gap length 0:00:01.55

Peak level 100.0 %
Extraction speed 2.0 X
Track quality 100.0 %
Test CRC 4C109F2A
Copy CRC 4C109F2A
Accurately ripped (confidence 2) [A87A2582] (AR v2)
Copy OK


All tracks accurately ripped

No errors occurred

End of status report

–– CUETools DB Plugin V2.1.4

[CTDB TOCID: vMCYAIQwV8F9vSQoHoD0p_RdLWE-] found
Submit result: vMCYAIQwV8F9vSQoHoD0p_RdLWE- has been confirmed
Track | CTDB Status
1 | (3/3) Accurately ripped
2 | (3/3) Accurately ripped
3 | (2/3) Accurately ripped
4 | (3/3) Accurately ripped
5 | (3/3) Accurately ripped
6 | (3/3) Accurately ripped
7 | (3/3) Accurately ripped
8 | (3/3) Accurately ripped
9 | (3/3) Accurately ripped
10 | (3/3) Accurately ripped
11 | (3/3) Accurately ripped
12 | (3/3) Accurately ripped
13 | (3/3) Accurately ripped
14 | (3/3) Accurately ripped
15 | (3/3) Accurately ripped
16 | (3/3) Accurately ripped
17 | (3/3) Accurately ripped
18 | (3/3) Accurately ripped
19 | (3/3) Accurately ripped
20 | (3/3) Accurately ripped


==== Log checksum 542BE47DF0BAC32A0AA8234EEAFCB773704AF6F4132582C076FA14C10E7D4DFA ====

foobar2000 1.2 / Dynamic Range Meter 1.1.1
log date: 2016-02-06 22:30:02

––––––––––––––––––––––––––––––––––––––––
Analyzed: J.B.'s Allstars / The Compact 2 Tone Story (Disc 4) (1)
Neville Staples AKA Judge Roughneck / The Compact 2 Tone Story (Disc 4) (2)
Rhoda With The Special A.K.A. / The Compact 2 Tone Story (Disc 4) (3)
Rico And The Special A.K.A. / The Compact 2 Tone Story (Disc 4) (4-5)
Roddy Radiation & The Specials / The Compact 2 Tone Story (Disc 4) (6)
The Appolinaires / The Compact 2 Tone Story (Disc 4) (7-9)
The Bodysnatchers / The Compact 2 Tone Story (Disc 4) (10)
The Friday Club / The Compact 2 Tone Story (Disc 4) (11)
The Higsons / The Compact 2 Tone Story (Disc 4) (12-13)
The Special A.K.A. / The Compact 2 Tone Story (Disc 4) (14-20)
––––––––––––––––––––––––––––––––––––––––

DR Peak RMS Duration Track
––––––––––––––––––––––––––––––––––––––––
DR14 0.00 dB -16.54 dB 3:37 16-Al Arm
DR12 0.00 dB -14.30 dB 4:08 18-Rude Boys Outa Jail (Version)
DR11 0.00 dB -14.14 dB 4:12 01-Theme From The Boiler
DR13 -0.05 dB -15.41 dB 3:39 02-Rasta Call You
DR13 -0.25 dB -16.35 dB 4:11 03-Easter Island
DR11 -1.40 dB -13.96 dB 3:24 17-Braggin' And Tryin' Not To Lie
DR14 0.00 dB -16.19 dB 3:49 04-The Feeling's Gone
DR14 0.00 dB -15.59 dB 2:52 05-The Bongo Medley (Extremely Long Version)
DR13 -0.22 dB -14.26 dB 3:32 07-Give It Up
DR13 0.00 dB -14.70 dB 3:33 20-007
DR13 0.00 dB -14.64 dB 3:17 15-Window Shopping (Instrumental)
DR11 -0.33 dB -13.71 dB 4:55 06-Ylang Ylang
DR16 0.00 dB -17.12 dB 5:25 09-Put The Punk Back Into Funk
DR12 -0.47 dB -14.53 dB 3:44 08-Version
DR12 -0.16 dB -14.43 dB 4:07 10-Bright Lights
DR13 -0.24 dB -15.10 dB 4:08 11-Rascist Friend (Instrumental)
DR11 -0.43 dB -13.41 dB 4:39 12-Bright Lights (Instrumental)
DR12 -0.24 dB -13.63 dB 3:49 13-Break Down The Door
DR12 -0.10 dB -14.76 dB 4:57 14-Can't Get A Break
DR11 -0.49 dB -13.50 dB 1:59 19-Racquel
––––––––––––––––––––––––––––––––––––––––

Number of tracks: 20
Official DR value: DR12

Samplerate: 44100 Hz
Channels: 2
Bits per sample: 16
Bitrate: 841 kbps
Codec: FLAC
================================================================================


All thanks to original releaser - alekow