George Benson - Good King Bad (1976) Japanese Blu-Spec 2013


George Benson - Good King Bad (1976) Japanese Blu-Spec 2013
EAC | FLAC | Image (Cue&Log) ~ 249 Mb (incl 5%) | Mp3 (CBR320) ~ 118 Mb (incl 5%) | Scans included
Genre: Jazz-Funk | Label: King Records/CTI | # KICJ 2314 | Time: 00:36:51

The R&B elements get stronger, the sound and mix are more attuned to the dancefloor, yet this brings out the best in George Benson's funky side. Thanks in part to the more rigid beat, Benson pares down his style to its rhythmic essentials, refusing to spray notes all over the place at random, and as a result, the record cooks and dances. His treatment of Vince Guaraldi's "Cast Your Fate to the Wind," hugely complemented by Joe Farrell's wistfully prancing flute, is a mini-masterpiece in the use of space, of hitting exactly the right stabbing note right in the pocket. Again, Creed Taylor turns to a James Brown alumnus, David Matthews, for arrangements, and he discreetly and wisely stays out of Bad George's way. Buy this one for "Cast Your Fate," but there is plenty more to savor here.

Review by Richard S. Ginell, Allmusic.com






Tracklist:

01. Theme from 'Good King Bad' (06:02)
02. One Rock Don't Make no Boulder (06:49)
03. Em (04:58)
04. Cast Your Fate to the Wind (06:59)
05. Siberian Workout (06:44)
06. Shell of a Man (05:16)


Exact Audio Copy V1.0 beta 3 from 29. August 2011

Отчёт EAC об извлечении, выполненном 1. февраля 2016, 12:44

George Benson / Good King Bad

Дисковод: Optiarc DVD RW AD-7203S Adapter: 1 ID: 0

Режим чтения : Достоверность
Использование точного потока : Да
Отключение кэша аудио : Да
Использование указателей C2 : Нет

Коррекция смещения при чтении : 48
Способность читать области Lead-in и Lead-out : Нет
Заполнение пропущенных сэмплов тишиной : Да
Удаление блоков с тишиной в начале и конце : Нет
При вычислениях CRC использовались нулевые сэмплы : Да
Интерфейс : Встроенный Win32-интерфейс для Win NT/2000

Выходной формат : Пользовательский кодировщик
Выбранный битрейт : 128 kBit/s
Качество : Высокий
Добавление ID3-тега : Нет
Утилита сжатия : C:Program Files (x86)Exact Audio CopyFlacflac.exe
Дополнительные параметры : -V -8 -T "Date=%year%" -T "Genre=%genre%" %source%


TOC извлечённого CD

Трек | Старт | Длительность | Начальный сектор | Конечный сектор
––––––––––––––––––––––––––––––––––-
1 | 0:00.00 | 6:02.53 | 0 | 27202
2 | 6:02.53 | 6:49.59 | 27203 | 57936
3 | 12:52.37 | 4:58.29 | 57937 | 80315
4 | 17:50.66 | 6:59.08 | 80316 | 111748
5 | 24:49.74 | 6:44.35 | 111749 | 142083
6 | 31:34.34 | 5:16.54 | 142084 | 165837


Характеристики диапазона извлечения и сообщения об ошибках

Выбранный диапазон

Имя файла D:Music_Egor from PTZGeorge Benson - Good King Bad (1975)George Benson - Good King Bad (1975).wav

Пиковый уровень 100.0 %
Скорость извлечения 3.5 X
Качество диапазона 100.0 %
CRC теста AE529AAA
CRC копии AE529AAA
Копирование… OK

Ошибок не произошло


AccurateRip: сводка

Трек 1 отсутствует в базе данных
Трек 2 отсутствует в базе данных
Трек 3 отсутствует в базе данных
Трек 4 отсутствует в базе данных
Трек 5 отсутствует в базе данных
Трек 6 отсутствует в базе данных

Ни одного трека нет в базе AccurateRip

Конец отчёта

==== Контрольная сумма отчёта 733BF863D0013DBAE73055BEA8CA5556BBAEA6F50F87922AAFB5E295D2E3F3E6 ====

foobar2000 1.2 / Dynamic Range Meter 1.1.1
log date: 2016-02-07 02:59:25

––––––––––––––––––––––––––––––––––––––––
Analyzed: George Benson / Good King Bad
––––––––––––––––––––––––––––––––––––––––

DR Peak RMS Duration Track
––––––––––––––––––––––––––––––––––––––––
DR11 0.00 dB -12.34 dB 6:03 01-Theme from 'Good King Bad'
DR12 0.00 dB -13.18 dB 6:50 02-One Rock Don't Make no Boulder
DR11 0.00 dB -12.75 dB 4:58 03-Em
DR11 -0.20 dB -13.53 dB 6:59 04-Cast Your Fate to the Wind
DR11 -0.16 dB -12.58 dB 6:44 05-Siberian Workout
DR10 0.00 dB -13.13 dB 5:17 06-Shell of a Man
––––––––––––––––––––––––––––––––––––––––

Number of tracks: 6
Official DR value: DR11

Samplerate: 44100 Hz
Channels: 2
Bits per sample: 16
Bitrate: 793 kbps
Codec: FLAC
================================================================================



All thanks to original releaser - Egor from PTZ