Eros Ramazzotti - Nuovi Eroi (1986) [Repost, New Rip]


Eros Ramazzotti - Nuovi Eroi (1986)
EAC | FLAC | Image (Cue&Log) ~ 380 Mb (incl 5%) | Mp3 (CBR320) ~ 155 Mb (incl 5%) | Scans included
Genre: Pop/Rock | Label: DDD/BMG | # 257 745 | Time: 00:55:13

Nuovi eroi (New Heroes) is the second album by Italian pop/rock singer Eros Ramazzotti, produced by Piero Cassano and released in 1986 on the BMG label. Lead single "Adesso tu" won the 1986 San Remo Music Festival, and topped the singles charts in Italy, Switzerland and Austria. The version included on the album is 1:05 longer than the single version, with additional instrumental passages. Nuovi eroi went on to reach #1 in the same three countries. It is the first of eleven consecutive full-length studio albums by Ramazzotti, up to and including 2009's Ali e radici, to top the Italian Albums chart. The CD issue of the album contains four additional tracks taken from Ramazzotti's debut album Cuori agitati.

This is the best Eros album ever. I was first introduced to his music when a friend from Germany sent me the Musica E album in january 1989 - I haven't looked back since! When I moved to Europe for a few years, I made sure that my collection was going forward and Nuovi Eroi was my first addition. To this day, it remains my favorite. The flow of the album can bring up the saddess of souls. I have recommended this album to a special friend of mine going through cancer treatment - that's how much I believe in this album! Un Nuovo Amore, Lacrime Di Gioventu and Nuovi Eroi are my favorite tracks of ALL Ramazzotti albums.

Review by Rachel CJ Messier, Amazon.com

The magic of Eros lives on in this recording, Eros's songs tell a story of everyday life, emotions and feelings, and this CD is no exception. It is a 'cocktail' of old and new material that combine to produce a startling but comfortable experience. The new is as inspiring as ever, but cleverly interwoven with touches of melancholy and emotions that make the music real and relavant. The old is timeless and classic, but nontheless just as refreshing, and have lost none of their original charm and excitement through being recorded again. Eros continues to mesmerise and enchant with his beautiful music and huanting vocals. My idea of a romantic evening at home with my husband, a great meal with Eros playing in the background, makes you feel grateful and appreciate the things you have. This CD was enjoyed not only by myself, but also by my non-italian speaking friends, who found it easy to listen to despite the language barrier, and not having heard of Eros "whats his name" before. The CD is a feast to listen to and also a good introduction to the magic that is Eros for anyone not familiar with this fantastic singer/songwriter.

Review by Natalia Mazepa, Amazon.co.uk






Tracklist:

01. Un Cuore Con Le Ali (03:52)
02. Un Nuovo Amore (04:12)
03. E Mi Ribello (04:22)
04. Fuggo Dal Nulla (03:48)
05. Con Gli Occhi Di Un Bambino (04:19)
06. Lacrime Di Gioventu' (04:52)
07. Emozione Dopo Emozione (04:35)
08. Adesso Tu (05:04)
09. Nuovi Eroi (04:11)
10. Una Storia Importante (04:09)
11. Cuori Agitati (03:45)
12. Buongiorno Bambina (04:15)
13. Terra Promessa (03:45)


Exact Audio Copy V1.1 from 23. June 2015

EAC extraction logfile from 6. February 2016, 8:15

Eros Ramazzotti / Nuovi Eroi

Used drive : hp DVD-RAM SW830 Adapter: 1 ID: 0

Read mode : Secure
Utilize accurate stream : Yes
Defeat audio cache : Yes
Make use of C2 pointers : No

Read offset correction : 6
Overread into Lead-In and Lead-Out : No
Fill up missing offset samples with silence : Yes
Delete leading and trailing silent blocks : No
Null samples used in CRC calculations : Yes
Used interface : Native Win32 interface for Win NT & 2000

Used output format : User Defined Encoder
Selected bitrate : 896 kBit/s
Quality : High
Add ID3 tag : No
Command line compressor : C:Program Files (x86)Exact Audio CopyFlacflac.exe
Additional command line options : -V -8 %source%


TOC of the extracted CD

Track | Start | Length | Start sector | End sector
––––––––––––––––––––––––––––-
1 | 0:00.33 | 3:52.50 | 33 | 17482
2 | 3:53.08 | 4:12.00 | 17483 | 36382
3 | 8:05.08 | 4:22.00 | 36383 | 56032
4 | 12:27.08 | 3:48.07 | 56033 | 73139
5 | 16:15.15 | 4:19.65 | 73140 | 92629
6 | 20:35.05 | 4:52.03 | 92630 | 114532
7 | 25:27.08 | 4:35.00 | 114533 | 135157
8 | 30:02.08 | 5:04.00 | 135158 | 157957
9 | 35:06.08 | 4:11.62 | 157958 | 176844
10 | 39:17.70 | 4:09.38 | 176845 | 195557
11 | 43:27.33 | 3:45.25 | 195558 | 212457
12 | 47:12.58 | 4:15.50 | 212458 | 231632
13 | 51:28.33 | 3:45.00 | 231633 | 248507


Range status and errors

Selected range

Filename D:Eros Ramazzotti - Nuovi Eroi.wav

Peak level 100.0 %
Extraction speed 7.3 X
Range quality 100.0 %
Test CRC 1FB93EF1
Copy CRC 1FB93EF1
Copy OK

No errors occurred


AccurateRip summary

Track 1 accurately ripped (confidence 2) [B095939F] (AR v2)
Track 2 accurately ripped (confidence 2) [6338F7B5] (AR v1)
Track 3 accurately ripped (confidence 2) [2D5CFD9E] (AR v1)
Track 4 accurately ripped (confidence 2) [53F6E8FE] (AR v1)
Track 5 accurately ripped (confidence 2) [D435D8BE] (AR v1)
Track 6 accurately ripped (confidence 2) [AE6C8554] (AR v1)
Track 7 accurately ripped (confidence 2) [6115D73D] (AR v1)
Track 8 accurately ripped (confidence 2) [3D0DB15B] (AR v2)
Track 9 accurately ripped (confidence 2) [F70ED417] (AR v1)
Track 10 accurately ripped (confidence 2) [D4186A7B] (AR v1)
Track 11 accurately ripped (confidence 2) [E6E892C6] (AR v1)
Track 12 accurately ripped (confidence 2) [50F54420] (AR v1)
Track 13 accurately ripped (confidence 2) [24103684] (AR v1)

All tracks accurately ripped

End of status report

==== Log checksum 4B14A6521F7B83FA7B7989C543706AB30ED697B224E7061AEAF452AF6D6CA746 ====

foobar2000 1.2 / Dynamic Range Meter 1.1.1
log date: 2016-02-07 02:59:15

––––––––––––––––––––––––––––––––––––––––
Analyzed: Eros Ramazzotti / Nuovi Eroi
––––––––––––––––––––––––––––––––––––––––

DR Peak RMS Duration Track
––––––––––––––––––––––––––––––––––––––––
DR12 -0.02 dB -14.23 dB 3:53 01-Un Cuore Con Le Ali
DR11 0.00 dB -14.56 dB 4:12 02-Un Nuovo Amore
DR11 0.00 dB -14.44 dB 4:22 03-E Mi Ribello
DR10 -0.31 dB -12.47 dB 3:48 04-Fuggo Dal Nulla
DR11 -1.41 dB -15.65 dB 4:20 05-Con Gli Occhi Di Un Bambino
DR11 0.00 dB -13.87 dB 4:52 06-Lacrime Di Gioventu'
DR11 0.00 dB -12.77 dB 4:35 07-Emozione Dopo Emozione
DR11 0.00 dB -15.05 dB 5:04 08-Adesso Tu
DR11 0.00 dB -12.79 dB 4:12 09-Nuovi Eroi
DR12 -2.22 dB -17.72 dB 4:10 10-Una Storia Importante
DR13 -1.67 dB -16.26 dB 3:45 11-Cuori Agitati
DR12 -1.27 dB -15.78 dB 4:16 12-Buongiorno Bambina
DR13 -0.43 dB -17.00 dB 3:45 13-Terra Promessa
––––––––––––––––––––––––––––––––––––––––

Number of tracks: 13
Official DR value: DR11

Samplerate: 44100 Hz
Channels: 2
Bits per sample: 16
Bitrate: 862 kbps
Codec: FLAC
================================================================================



All thanks to original releaser - mtfc