Randy Bachman - Every Song Tells A Story (2002)


Randy Bachman - Every Song Tells A Story (2002)
EAC Rip | FLAC (Img) + Cue + Log ~ 497 Mb | MP3 CBR320 ~ 184 Mb
Scans (JPG, 600 dpi) ~ 63 Mb | RAR 5% Recovery
Rock | Ranbach Music #RB 0122

Available together for the first time ever - the hits of The Guess Who and Bachman Turner Overdrive - woven together with some highly entertaining stories by the man behind the music - Randy Bachman. Over a dozen top 10 hits performed by Bachman and his band during a live "unplugged" concert set, recorded in Vancouver in April 2002. The arrangements are hot and the stories behind the songs are absorbing as Randy tells the often-humorous anecdotes behind some of the biggest pop music hits of the last 30 years. Tracks include: No Sugar Tonight, Undun, Let it Ride, These Eyes, Laughing, Four Wheel Drive, No Time, American Woman, Hey You, Looking out for #1, You Ain't Seen Nothin' Yet, Takin Care of Business, Shakin All Over.
| | |

***************


Track List:

01. Praire Town [05:09]
02. Prairie Town Story [01:56]
03. No Sugar Tonight Story [01:25]
04. No Sugar Tonight [01:42]
05. New Mother Nature Story [00:35]
06. No Sugar Tonight/New Mother Nature [02:52]
07. Undun Story [05:16]
08. Undun [03:59]
09. Let it Ride Story [00:59]
10. Let it Ride [03:47]
11. These Eyes Story [03:13]
12. These Eyes [04:00]
13. Laughing Story [02:04]
14. Laughing [03:22]
15. More Laughing Story [00:36]
16. Four Wheel Drive Story [00:29]
17. Four Wheel Drive [02:42]
18. No Time Story [00:22]
19. No Time [03:04]
20. American Woman Story [02:51]
21. American Woman [02:52]
22. Hey You Story [01:14]
23. Hey You [02:21]
24. Looking Out For # 1 Story [01:56]
25. Looking Out For # 1 [02:23]
26. You Ain't Seen Nothing Yet Story [02:03]
27. You Ain't Seen Nothing Yet [03:17]
28. Taking Care of Business Story [05:03]
29. Taking Care of Business [04:12]
30. Shaking All Over [01:01]

Exact Audio Copy V1.0 beta 1 from 15. November 2010

EAC extraction logfile from 13. September 2012, 20:07

Randy Bachman / Every Song Tells A Story

Used drive : Optiarc DVD RW AD-7263S Adapter: 3 ID: 0

Read mode : Secure
Utilize accurate stream : Yes
Defeat audio cache : Yes
Make use of C2 pointers : No

Read offset correction : 48
Overread into Lead-In and Lead-Out : No
Fill up missing offset samples with silence : Yes
Delete leading and trailing silent blocks : No
Null samples used in CRC calculations : Yes
Used interface : Native Win32 interface for Win NT & 2000

Used output format : User Defined Encoder
Selected bitrate : 32 kBit/s
Quality : High
Add ID3 tag : No
Command line compressor : C:Program FilesExact Audio CopyFlacflac.exe
Additional command line options : -T "DATE=%y" -T "GENRE=%m" -8 -V %s


TOC of the extracted CD

Track | Start | Length | Start sector | End sector
––––––––––––––––––––––––––––-
1 | 0:00.00 | 5:08.48 | 0 | 23147
2 | 5:08.48 | 1:55.20 | 23148 | 31792
3 | 7:03.68 | 1:24.41 | 31793 | 38133
4 | 8:28.34 | 1:41.56 | 38134 | 45764
5 | 10:10.15 | 0:34.57 | 45765 | 48371
6 | 10:44.72 | 2:51.71 | 48372 | 61267
7 | 13:36.68 | 5:15.20 | 61268 | 84912
8 | 18:52.13 | 3:58.51 | 84913 | 102813
9 | 22:50.64 | 0:58.37 | 102814 | 107200
10 | 23:49.26 | 3:46.16 | 107201 | 124166
11 | 27:35.42 | 3:12.21 | 124167 | 138587
12 | 30:47.63 | 3:59.52 | 138588 | 156564
13 | 34:47.40 | 2:03.08 | 156565 | 165797
14 | 36:50.48 | 3:21.03 | 165798 | 180875
15 | 40:11.51 | 0:35.20 | 180876 | 183520
16 | 40:46.71 | 0:28.50 | 183521 | 185670
17 | 41:15.46 | 2:41.50 | 185671 | 197795
18 | 43:57.21 | 0:21.36 | 197796 | 199406
19 | 44:18.57 | 3:03.46 | 199407 | 213177
20 | 47:22.28 | 2:50.57 | 213178 | 225984
21 | 50:13.10 | 2:51.74 | 225985 | 238883
22 | 53:05.09 | 1:13.15 | 238884 | 244373
23 | 54:18.24 | 2:20.60 | 244374 | 254933
24 | 56:39.09 | 1:55.19 | 254934 | 263577
25 | 58:34.28 | 2:22.25 | 263578 | 274252
26 | 60:56.53 | 2:02.30 | 274253 | 283432
27 | 62:59.08 | 3:16.18 | 283433 | 298150
28 | 66:15.26 | 5:02.67 | 298151 | 320867
29 | 71:18.18 | 4:11.12 | 320868 | 339704
30 | 75:29.30 | 1:00.10 | 339705 | 344214


Range status and errors

Selected range

Filename C:Documents and SettingsmaximМои документыМои рисункиRandy Bachman - Every Song Tells A Story.wav

Peak level 96.6 %
Extraction speed 0.0 X
Range quality 100.0 %
Test CRC 4798ECAB
Copy CRC 4798ECAB
Copy OK

No errors occurred


AccurateRip summary

Track 1 not present in database
Track 2 not present in database
Track 3 not present in database
Track 4 not present in database
Track 5 not present in database
Track 6 not present in database
Track 7 not present in database
Track 8 not present in database
Track 9 not present in database
Track 10 not present in database
Track 11 not present in database
Track 12 not present in database
Track 13 not present in database
Track 14 not present in database
Track 15 not present in database
Track 16 not present in database
Track 17 not present in database
Track 18 not present in database
Track 19 not present in database
Track 20 not present in database
Track 21 not present in database
Track 22 not present in database
Track 23 not present in database
Track 24 not present in database
Track 25 not present in database
Track 26 not present in database
Track 27 not present in database
Track 28 not present in database
Track 29 not present in database
Track 30 not present in database

None of the tracks are present in the AccurateRip database

End of status report

==== Log checksum 5BC7C8435B46E5DD903C3641EF3FE191CAFAACF55173F9C26CBDAED0D5F4728D ====

foobar2000 1.2.6 / Dynamic Range Meter 1.1.1
log date: 2016-02-07 12:55:55

––––––––––––––––––––––––––––––––––––––––
Analyzed: Randy Bachman / Every Song Tells A Story
––––––––––––––––––––––––––––––––––––––––

DR Peak RMS Duration Track
––––––––––––––––––––––––––––––––––––––––
DR10 -0.30 dB -12.11 dB 5:09 01-Praire Town
DR14 -0.30 dB -23.22 dB 1:55 02-Prairie Town Story
DR14 -7.90 dB -25.91 dB 1:25 03-No Sugar Tonight Story
DR8 -0.30 dB -9.73 dB 1:42 04-No Sugar Tonight
DR14 -1.15 dB -19.92 dB 0:35 05-New Mother Nature Story
DR8 -0.30 dB -9.36 dB 2:52 06-No Sugar Tonight/New Mother Nature
DR16 -0.51 dB -22.40 dB 5:15 07-Undun Story
DR10 -0.30 dB -11.50 dB 3:59 08-Undun
DR15 -3.93 dB -23.20 dB 0:58 09-Let it Ride Story
DR9 -0.30 dB -10.66 dB 3:46 10-Let it Ride
DR17 -1.26 dB -23.04 dB 3:12 11-These Eyes Story
DR9 -0.30 dB -11.33 dB 4:00 12-These Eyes
DR16 -2.40 dB -23.38 dB 2:03 13-Laughing Story
DR9 -0.30 dB -11.48 dB 3:21 14-Laughing
DR12 -3.84 dB -23.79 dB 0:35 15-More Laughing Story
DR13 -5.60 dB -25.08 dB 0:29 16-Four Wheel Drive Story
DR9 -0.30 dB -10.90 dB 2:42 17-Four Wheel Drive
DR11 -0.30 dB -21.44 dB 0:21 18-No Time Story
DR9 -0.30 dB -10.74 dB 3:04 19-No Time
DR10 -0.30 dB -15.40 dB 2:51 20-American Woman Story
DR8 -0.30 dB -9.69 dB 2:52 21-American Woman
DR13 -0.53 dB -19.58 dB 1:13 22-Hey You Story
DR8 -0.30 dB -9.85 dB 2:21 23-Hey You
DR15 -0.30 dB -20.30 dB 1:55 24-Looking Out For # 1 Story
DR12 -0.30 dB -13.70 dB 2:22 25-Looking Out For # 1
DR16 -4.77 dB -24.40 dB 2:02 26-You Ain't Seen Nothing Yet Story
DR8 -0.30 dB -9.98 dB 3:16 27-You Ain't Seen Nothing Yet
DR15 -0.30 dB -20.67 dB 5:03 28-Taking Care of Business Story
DR8 -0.30 dB -9.64 dB 4:11 29-Taking Care of Business
DR8 -0.30 dB -10.17 dB 1:00 30-Shaking All Over
––––––––––––––––––––––––––––––––––––––––

Number of tracks: 30
Official DR value: DR12

Samplerate: 44100 Hz
Channels: 2
Bits per sample: 16
Bitrate: 865 kbps
Codec: FLAC
================================================================================

[CUETools log; Date: 07.02.2016 12:55:55; Version: 2.1.5]
[CTDB TOCID: IqttH..nFXCUGtR8SOuJMj1rgb4-] disk not present in database.
[AccurateRip ID: 00520d4b-06c19880-a411ed1e] found.
Track [ CRC | V2 ] Status
01 [0e627c9f|fe6b7262] (0+1/1) Accurately ripped
02 [ec62be3f|f318ea28] (0+1/1) Accurately ripped
03 [ca8fcdd4|073821ad] (0+1/1) Accurately ripped
04 [db80063c|92f23695] (0+1/1) Accurately ripped
05 [b4c5d0a7|d22e7d2d] (0+1/1) Accurately ripped
06 [36502901|4d4c2534] (0+1/1) Accurately ripped
07 [f3d4fe04|901ca8cb] (0+1/1) Accurately ripped
08 [0f4a34ca|b297f290] (0+1/1) Accurately ripped
09 [0218c099|12513aca] (0+1/1) Accurately ripped
10 [d91f4f9a|7396286b] (0+1/1) Accurately ripped
11 [c1f31230|cfc0969f] (0+1/1) Accurately ripped
12 [5aa45f9c|0e735771] (0+1/1) Accurately ripped
13 [f7f16c71|a601845f] (0+1/1) Accurately ripped
14 [e4ee0403|e34f3ac7] (0+1/1) Accurately ripped
15 [b8f82731|0e1c76c8] (0+1/1) Accurately ripped
16 [e64c160a|63cee1e8] (0+1/1) Accurately ripped
17 [d0585300|2c9f7759] (0+1/1) Accurately ripped
18 [fe260f3d|e1b10412] (0+1/1) Accurately ripped
19 [7f05d449|c92e0c59] (0+1/1) Accurately ripped
20 [f521e32b|c7db148f] (0+1/1) Accurately ripped
21 [ebb0f0ac|a8d3b2d3] (0+1/1) Accurately ripped
22 [30fb2278|3f7d9a8f] (0+1/1) Accurately ripped
23 [800f808d|c673628b] (0+1/1) Accurately ripped
24 [eeb65401|e28a5a2c] (0+1/1) Accurately ripped
25 [605ccced|3dd0d9a6] (0+1/1) Accurately ripped
26 [720d599d|82ed8095] (0+1/1) Accurately ripped
27 [194fdd24|5b26ff7e] (0+1/1) Accurately ripped
28 [0845c010|2ef240cf] (0+1/1) Accurately ripped
29 [4b2c3d70|d832438e] (0+1/1) Accurately ripped
30 [a114ded9|e15d59b1] (0+1/1) Accurately ripped

Track Peak [ CRC32 ] [W/O NULL] [ LOG ]
– 96,6 [4798ECAB] [9E7A94B8] CRC32
01 96,6 [3A74604D] [20836359]
02 96,6 [F9E7EB98] [75D40643]
03 40,2 [DE528D9C] [1025A281]
04 96,6 [EB325C4F] [947AEDD4]
05 87,5 [ABB5557E] [3E1667DA]
06 96,6 [5391ED3F] [6D642ADD]
07 94,2 [C21C47A6] [69423D7D]
08 96,6 [4FDAF469] [A51C36BA]
09 63,6 [8E3BA5E6] [40E4B4DC]
10 96,6 [5405DFBC] [4A629158]
11 86,4 [2B21F843] [EA864405]
12 96,6 [847CA1E7] [67621538]
13 75,8 [408E44FB] [1F158BFE]
14 96,6 [071B2D99] [85393D5D]
15 64,2 [1E95701C] [3361C526]
16 52,5 [8036993F] [9CF57F35]
17 96,6 [86F2254E] [3E6E07A6]
18 96,6 [3D0B89D0] [51C87B00]
19 96,6 [F172EB7A] [CFBEC4CA]
20 96,6 [64CF133F] [194256F3]
21 96,6 [BB90B775] [92B87C9B]
22 94,0 [C6E5B38E] [8283FBFC]
23 96,6 [8C530C1B] [D105E4FD]
24 96,6 [FBC9F0DB] [9743FDEF]
25 96,6 [C8C8C8FF] [1A23D4CF]
26 57,7 [F84E3BED] [12B7F162]
27 96,6 [13F51B2A] [3E149B8B]
28 96,6 [2FD333A1] [DF7F915F]
29 96,6 [D1643949] [E659A4BA]
30 96,6 [84735E6A] [5E5F0BFB]



See also:




All thanks go to maxim69m



No mirrors, please!

Download: