Fuse One - Fuse (1980) {King Records Japan}


Fuse One - Fuse (1980) {King Records Japan}
EAC 1.0b3 | FLAC Image level 8 | Cue+Log | Full Scans 300dpi | 259MB + 5% Recovery
Genre: Fusion, Jazz-Funk

This disc is a welcome addition to the discography of the now almost forgotten woodwind master Joe Farrell. Farrell was a multi-instrumentalist who chose to concentrate on tenor and soprano saxophones and flute. From the late 1960s onwards he was a highly sought after session player who appeared on many of the most significant recordings right until his early demise in 1986. He played with the Elvin Jones Trio, Chick Corea's Return To Forever and the earliest editions of Mingus Dynasty.
Track List
01. Grand Prix (Foster) 5:27
02. Waterside (Smetana) 4:41
03. Sunshine Lady (Clarke) 4:05
04. To Whom All Things Concern (McLaughlin) 4:50
05. Double Steal (Wall) 6:26
06. Friendship (McLaughlin) 6:14
07. Taxi Blues (Clarke) 5:59

musicians
Stanley Clarke - bass, tenor bass
Paulinho DaCosta - percussion
Leon Ndugu Chancler - drums
John McLaughlin - electric guitar
Joe Farrell - tenor sax, soprano sax, flute
Will Lee - bass
Lenny White - drums
Don Grusin - keyboards
Larry Coryell - electric and acoustic guitars
Roger Squitero - percussion
Ronnie Foster - keyboards
Tony Williams - drums
Victor Feldman - piano
Hugh McCracken - harmonica
Jeremy Wall - synth, arr,cond
Suzanne Cianni - synth programming
David Nadien, Jonathan Abramowitz, Gerald Tarack, John Pintaville, Charles Libove, Barry Finclair, Jan Mullen, Max Ellen, Richard Sortomme, Charles McCracken - strings

Produced by Creed Taylor


Exact Audio Copy V1.0 beta 3 from 29. August 2011

Отчёт EAC об извлечении, выполненном 1. февраля 2016, 11:51

Fuse One / Fuse

Дисковод: Optiarc DVD RW AD-7203S Adapter: 1 ID: 0

Режим чтения : Достоверность
Использование точного потока : Да
Отключение кэша аудио : Да
Использование указателей C2 : Нет

Коррекция смещения при чтении : 48
Способность читать области Lead-in и Lead-out : Нет
Заполнение пропущенных сэмплов тишиной : Да
Удаление блоков с тишиной в начале и конце : Нет
При вычислениях CRC использовались нулевые сэмплы : Да
Интерфейс : Встроенный Win32-интерфейс для Win NT/2000

Выходной формат : Пользовательский кодировщик
Выбранный битрейт : 128 kBit/s
Качество : Высокий
Добавление ID3-тега : Нет
Утилита сжатия : C:Program Files (x86)Exact Audio CopyFlacflac.exe
Дополнительные параметры : -V -8 -T "Date=%year%" -T "Genre=%genre%" %source%


TOC извлечённого CD

Трек | Старт | Длительность | Начальный сектор | Конечный сектор
––––––––––––––––––––––––––––––––––-
1 | 0:00.00 | 5:26.67 | 0 | 24516
2 | 5:26.67 | 4:40.52 | 24517 | 45568
3 | 10:07.44 | 4:05.34 | 45569 | 63977
4 | 14:13.03 | 4:50.00 | 63978 | 85727
5 | 19:03.03 | 6:25.53 | 85728 | 114655
6 | 25:28.56 | 6:14.08 | 114656 | 142713
7 | 31:42.64 | 5:58.38 | 142714 | 169601


Характеристики диапазона извлечения и сообщения об ошибках

Выбранный диапазон

Имя файла D:Music_Egor from PTZFuse One - Fuse (1980)Fuse One - Fuse (1980).wav

Пиковый уровень 100.0 %
Скорость извлечения 3.5 X
Качество диапазона 100.0 %
CRC теста 442543FE
CRC копии 442543FE
Копирование… OK

Ошибок не произошло


AccurateRip: сводка

Трек 1 : извлечено точно (доверие 6) [AB16FF1F] (AR v2)
Трек 2 : извлечено точно (доверие 2) [1B4687BC] (AR v2)
Трек 3 : извлечено точно (доверие 2) [4800068B] (AR v2)
Трек 4 : извлечено точно (доверие 2) [B6AA4AD9] (AR v2)
Трек 5 : извлечено точно (доверие 2) [A6B94713] (AR v2)
Трек 6 : извлечено точно (доверие 2) [2D8B8B3E] (AR v2)
Трек 7 : извлечено точно (доверие 2) [BF4446BD] (AR v2)

Все треки извлечены точно

Конец отчёта

==== Контрольная сумма отчёта AB7D85AE57F9C65EFFF89A954EED905DC8E683F7B6C811639BCB7C947AF5F26C ====


––––––––––––––––––––––––––––––––––––––––
Analyzed: Fuse One / Fuse
––––––––––––––––––––––––––––––––––––––––

DR Peak RMS Duration Track
––––––––––––––––––––––––––––––––––––––––
DR13 0.00 dB -15.89 dB 5:27 01-Grand Prix
DR13 0.00 dB -15.89 dB 4:41 02-Waterside
DR13 -0.24 dB -17.29 dB 4:05 03-Sunshine Lady
DR13 -0.15 dB -15.59 dB 4:50 04-To Whom All Things Concern
DR15 0.00 dB -16.72 dB 6:26 05-Double Steal
DR13 -0.31 dB -18.46 dB 6:14 06-Friendship
DR15 0.00 dB -17.81 dB 5:59 07-Taxi Blues
––––––––––––––––––––––––––––––––––––––––

Number of tracks: 7
Official DR value: DR14

Samplerate: 44100 Hz
Channels: 2
Bits per sample: 16
Bitrate: 854 kbps
Codec: FLAC
================================================================================



Rip by kvapar