Randy Meisner - One More Song (1980) + Randy Meisner (1982) 2 LP in 1 CD, Remastered 2007


Randy Meisner - One More Song (1980) + Randy Meisner (1982) 2 LP in 1 CD, Remastered 2007
EAC | FLAC | Image (Cue&Log) ~ 481 Mb (incl 5%) | Mp3 (CBR320) ~ 197 Mb (incl 5%) | Scans included
Genre: Rock, Soft Rock, Country Rock | Label: Acadia | # ACAM 8175 | Time: 01:12:48

Digitally remastered two-fer containing a pair of albums from the former Eagles/Poco member: One More Song (1980) and Randy Meisner (1982). One More Song's hit single "Hearts On Fire" (with Kim Carnes on backing vocals) made the US top 20. The Eagle's Don Henley and Glen Frey provide backing vocals on the title track. Randy Meisner, the album, was an amazing Country Rock production with a stellar host of players including Heart's Wilson sisters, The Tower of Power horn section, Mitchell Froom, Nicky Hopkins and Marcy Levy.

Having landed himself in two of the more high-profile California country-rock bands in the '70s, Poco and the Eagles, Randy Meisner was more than a bass player and harmony singer in both, and with the Eagles in particular, his talent for writing weary, earnest and often gorgeous ballads like “Take It to the Limit” really came to the fore. His solo work after he left the Eagles continued in the same vein, and with the possible exception of Don Henley, he did as well as any of his ex-bandmates on the solo front. This set combines two of his solo LPs, 1980’s One More Song and 1982’s Randy Meisner (this was Meisner's second self-titled LP – he issued one under his name in 1978, as well), and the two fit together fairly seamlessly. It’s all competent California singer/songwriter country pop, no more, no less, and if Meisner isn’t exactly the second coming of Jackson Browne, he’s refreshingly unassuming and at times, as with the striking “Playin’ in the Deep End,” he raises the ante on all of his cohorts.

Review by Steve Leggett, Allmusic.com





Tracklist:

One More Song (1980):

01. Hearts On Fire (02:49)
02. Gotta Get Away (04:03)
03. Come On Back To Me (03:51)
04. Deep Inside My Heart (03:29)
05. I Need You Bad (03:12)
06. One More Song (03:55)
07. Trouble Ahead (04:12)
08. White Shoes (04:11)
09. Anyway Bye Bye (04:31)

Randy Meisner (1982):

10. Never Been In Love (04:28)
11. Darkness Of The Heart (04:20)
12. Jealousy (04:57)
13. Tonight (05:14)
14. Playin' In The Deep End (04:10)
15. Strangers (03:58)
16. Still Runnin' (03:30)
17. Nothing Is Said (04:00)
18. Doin' It For Delilah (03:51)


Exact Audio Copy V1.1 from 23. June 2015

Отчёт EAC об извлечении, выполненном 6. февраля 2016, 22:19

Randy Meisner / One More Song - Randy Meisner

Дисковод: ASUS DRW-24B3ST Adapter: 0 ID: 0

Режим чтения : Достоверность
Использование точного потока : Да
Отключение кэша аудио : Да
Использование указателей C2 : Нет

Коррекция смещения при чтении : 6
Способность читать области Lead-in и Lead-out : Нет
Заполнение пропущенных сэмплов тишиной : Да
Удаление блоков с тишиной в начале и конце : Нет
При вычислениях CRC использовались нулевые сэмплы : Да
Интерфейс : Установленный внешний ASPI-интерфейс

Выходной формат : Пользовательский кодировщик
Выбранный битрейт : 896 kBit/s
Качество : Высокий
Добавление ID3-тега : Нет
Утилита сжатия : C:Program Files (x86)Exact Audio CopyFLACFLAC.EXE
Дополнительные параметры : -6 -V -T "ARTIST=%artist%" -T "TITLE=%title%" -T "ALBUM=%albumtitle%" -T "DATE=%year%" -T "TRACKNUMBER=%tracknr%" -T "GENRE=%genre%" -T "COMMENT=%comment%" -T "BAND=%albuminterpret%" -T "ALBUMARTIST=%albuminterpret%" -T "COMPOSER=%composer%" %haslyrics%–tag-from-file=LYRICS="%lyricsfile%"%haslyrics% -T "DISCNUMBER=%cdnumber%" -T "TOTALDISCS=%totalcds%" -T "TOTALTRACKS=%numtracks%" %hascover%–picture="%coverfile%"%hascover% %source% -o %dest%


TOC извлечённого CD

Трек | Старт | Длительность | Начальный сектор | Конечный сектор
––––––––––––––––––––––––––––––––––-
1 | 0:00.00 | 2:49.09 | 0 | 12683
2 | 2:49.09 | 4:03.46 | 12684 | 30954
3 | 6:52.55 | 3:51.44 | 30955 | 48323
4 | 10:44.24 | 3:29.57 | 48324 | 64055
5 | 14:14.06 | 3:12.26 | 64056 | 78481
6 | 17:26.32 | 3:55.64 | 78482 | 96170
7 | 21:22.21 | 4:12.15 | 96171 | 115085
8 | 25:34.36 | 4:11.52 | 115086 | 133962
9 | 29:46.13 | 4:31.08 | 133963 | 154295
10 | 34:17.21 | 4:28.17 | 154296 | 174412
11 | 38:45.38 | 4:20.25 | 174413 | 193937
12 | 43:05.63 | 4:57.43 | 193938 | 216255
13 | 48:03.31 | 5:14.71 | 216256 | 239876
14 | 53:18.27 | 4:10.16 | 239877 | 258642
15 | 57:28.43 | 3:58.20 | 258643 | 276512
16 | 61:26.63 | 3:30.55 | 276513 | 292317
17 | 64:57.43 | 4:00.13 | 292318 | 310330
18 | 68:57.56 | 3:51.02 | 310331 | 327657


Характеристики диапазона извлечения и сообщения об ошибках

Выбранный диапазон

Имя файла E:TorrentsRandy Meisner - 1980-82 - One More Song-Randy MeisnerRandy Meisner - One More Song - Randy Meisner.wav

Пиковый уровень 100.0 %
Скорость извлечения 9.2 X
Качество диапазона 99.9 %
CRC теста 22CCA0E3
CRC копии 22CCA0E3
Копирование… OK

Ошибок не произошло

Конец отчёта

==== Контрольная сумма отчёта 2CD29CC6EBE42E47587583EBE2DBB331074DF74B2591E2AD7553DCA016AF20D2 ====

[CUETools log; Date: 07.02.2016 19:30:25; Version: 2.1.4]
[CTDB TOCID: b7MRpXQtjw1FS7pEEcSaMJzbQeY-] found.
Track | CTDB Status
1 | (8/8) Accurately ripped
2 | (8/8) Accurately ripped
3 | (8/8) Accurately ripped
4 | (8/8) Accurately ripped
5 | (8/8) Accurately ripped
6 | (8/8) Accurately ripped
7 | (8/8) Accurately ripped
8 | (8/8) Accurately ripped
9 | (8/8) Accurately ripped
10 | (7/8) Accurately ripped
11 | (8/8) Accurately ripped
12 | (8/8) Accurately ripped
13 | (7/8) Accurately ripped
14 | (7/8) Accurately ripped
15 | (7/8) Accurately ripped
16 | (8/8) Accurately ripped
17 | (8/8) Accurately ripped
18 | (8/8) Accurately ripped
[AccurateRip ID: 002e245c-0270c6ba-1e111012] found.
Track [ CRC | V2 ] Status
01 [33260f07|59c2a885] (03+00/12) Accurately ripped
02 [c83bad35|283d3fbf] (04+00/13) Accurately ripped
03 [143daf42|e00bb88c] (04+00/12) Accurately ripped
04 [6bb9ee30|cee3144c] (03+00/12) Accurately ripped
05 [05c5059b|b2f83f34] (03+00/12) Accurately ripped
06 [ef88e375|6625f31c] (03+00/12) Accurately ripped
07 [80af2e64|c65e8df8] (03+00/12) Accurately ripped
08 [90ac8681|5785ad2b] (03+00/12) Accurately ripped
09 [766c626b|8e58067c] (03+00/11) Accurately ripped
10 [8f175db4|5f174e15] (02+00/11) Accurately ripped
11 [c67316fc|8f1a963c] (03+00/12) Accurately ripped
12 [7dbc4fba|f1af521a] (03+00/12) Accurately ripped
13 [5fd808db|8f1bba55] (03+00/12) Accurately ripped
14 [4de6dbb0|149edb14] (03+00/12) Accurately ripped
15 [e9cf7d41|e1407ac8] (03+00/10) Accurately ripped
16 [2319a5c3|4acad68f] (03+00/10) Accurately ripped
17 [e5e0d43f|141d17a3] (03+00/10) Accurately ripped
18 [f160a361|86bdc48e] (03+00/10) Accurately ripped
Offsetted by -98:
01 [d8e27f0b] (02/12) Accurately ripped
02 [d15a03f3] (02/13) Accurately ripped
03 [c2a5b66a] (02/12) Accurately ripped
04 [def24a16] (02/12) Accurately ripped
05 [c7debfc3] (02/12) Accurately ripped
06 [04b3c031] (02/12) Accurately ripped
07 [c0a4731a] (02/12) Accurately ripped
08 [8a124467] (02/12) Accurately ripped
09 [8db40383] (02/11) Accurately ripped
10 [8c40af32] (02/11) Accurately ripped
11 [b4e3162e] (02/12) Accurately ripped
12 [ac7e0a7e] (02/12) Accurately ripped
13 [115c7f6b] (02/12) Accurately ripped
14 [b2eda186] (02/12) Accurately ripped
15 [fddce8a7] (00/10) No match (V2 was not tested)
16 [535da729] (00/10) No match (V2 was not tested)
17 [b12f0a23] (00/10) No match (V2 was not tested)
18 [7cf48d3d] (00/10) No match (V2 was not tested)

Track Peak [ CRC32 ] [W/O NULL] [ LOG ]
– 99,9 [22CCA0E3] [77B9F2F1] CRC32
01 83,4 [CD0AC65A] [797A22F5]
02 87,3 [0E31E2D4] [F2A68AF3]
03 82,9 [ACF1B7C0] [026CFEEB]
04 75,7 [7BC83C0F] [4B0BD058]
05 88,1 [4F9420CA] [24531236]
06 99,9 [B64AF6A6] [99247AA0]
07 89,1 [02C29663] [3CD40452]
08 87,1 [DA5D9043] [05E6BC5D]
09 99,9 [D892D1B8] [0E10EDF8]
10 79,2 [1DE27F76] [A699A624]
11 80,2 [50BCF49C] [F5E4E5BD]
12 76,2 [817E035C] [B03D176A]
13 91,3 [99DA8913] [DBFD4A4F]
14 86,9 [42B219C0] [70ED0219]
15 90,1 [4CC7C2D7] [3D906757]
16 75,8 [5A6A30F4] [A084724E]
17 92,6 [6A61ADC7] [6F2D0BCF]
18 75,7 [8B9433D0] [DBBC539A]

foobar2000 1.2 / Dynamic Range Meter 1.1.1
log date: 2016-02-07 18:18:50

––––––––––––––––––––––––––––––––––––––––
Analyzed: Randy Meisner / One More Song - Randy Meisner
––––––––––––––––––––––––––––––––––––––––

DR Peak RMS Duration Track
––––––––––––––––––––––––––––––––––––––––
DR13 -1.57 dB -16.55 dB 2:49 01-Hearts On Fire
DR13 -1.17 dB -16.55 dB 4:04 02-Gotta Get Away
DR13 -1.63 dB -16.56 dB 3:52 03-Come On Back To Me
DR13 -2.41 dB -16.50 dB 3:30 04-Deep Inside My Heart
DR13 -1.09 dB -16.57 dB 3:12 05-I Need You Bad
DR13 0.00 dB -16.53 dB 3:56 06-One More Song
DR13 -1.00 dB -16.50 dB 4:12 07-Trouble Ahead
DR13 -1.19 dB -16.51 dB 4:12 08-White Shoes
DR13 0.00 dB -16.61 dB 4:31 09-Anyway Bye Bye
DR12 -2.02 dB -16.48 dB 4:28 10-Never Been In Love
DR13 -1.91 dB -16.46 dB 4:20 11-Darkness Of The Heart
DR13 -2.36 dB -16.48 dB 4:58 12-Jealousy
DR13 -0.79 dB -16.44 dB 5:15 13-Tonight
DR13 -1.21 dB -16.48 dB 4:10 14-Playin' In The Deep End
DR13 -0.90 dB -16.51 dB 3:58 15-Strangers
DR12 -2.41 dB -16.51 dB 3:31 16-Still Runnin'
DR13 -0.66 dB -16.44 dB 4:00 17-Nothing Is Said
DR12 -2.41 dB -16.42 dB 3:51 18-Doin' It For Delilah
––––––––––––––––––––––––––––––––––––––––

Number of tracks: 18
Official DR value: DR13

Samplerate: 44100 Hz
Channels: 2
Bits per sample: 16
Bitrate: 839 kbps
Codec: FLAC
================================================================================



All thanks to original releaser - Копысов