Wind - Seasons (1971) [Reissue 2010]


Wind - Seasons (1971) [Reissue 2010]
EAC Rip | FLAC (tracks+.cue+log) - 252 MB | MP3 CBR 320 kbps (LAME 3.93) - 98 MB | Covers - 101 MB
Genre: Progressive/Krautrock | RAR 3% Rec. | Label: Long Hair (LHC00086)

Now for the first time as an official reissue, famous German band Wind's legendary first album Seasons, originally released in 1971. This is a real German Krautrock classic album. The poetic and complexly crafted songs of the album were filled with extensive instrumentals and unusual diversions.

Tracklist:
01. What Do We Do Now
02. Now It's Over
03. Romance
04. Springwind
05. Dear Little Friend
06. Red Morningbird

Total time: 41:41

Exact Audio Copy V1.0 beta 3 from 29. August 2011

EAC extraction logfile from 26. June 2015, 23:50

Wind / Seasons

Used drive : HL-DT-STDVDRAM GH24NS95 Adapter: 3 ID: 0

Read mode : Secure
Utilize accurate stream : Yes
Defeat audio cache : Yes
Make use of C2 pointers : No

Read offset correction : 6
Overread into Lead-In and Lead-Out : No
Fill up missing offset samples with silence : Yes
Delete leading and trailing silent blocks : No
Null samples used in CRC calculations : Yes
Used interface : Native Win32 interface for Win NT & 2000
Gap handling : Appended to previous track

Used output format : User Defined Encoder
Selected bitrate : 128 kBit/s
Quality : High
Add ID3 tag : Yes
Command line compressor : C:Program FilesFLACflac.exe
Additional command line options : -V -8 -T "Genre=%genre%" -T "Artist=%artist%" -T "Title=%title%" -T "Album=%albumtitle%" -T "Date=%year%" -T "Tracknumber=%tracknr%" -T "Comment=%comment%" %source%


TOC of the extracted CD

Track | Start | Length | Start sector | End sector
––––––––––––––––––––––––––––-
1 | 0:00.00 | 8:27.60 | 0 | 38084
2 | 8:27.60 | 4:24.18 | 38085 | 57902
3 | 12:52.03 | 1:32.39 | 57903 | 64841
4 | 14:24.42 | 7:08.21 | 64842 | 96962
5 | 21:32.63 | 4:18.37 | 96963 | 116349
6 | 25:51.25 | 15:50.00 | 116350 | 187599


Track 1

Filename F:Extract Audio Copyby fovit1 - What Do We Do Now.wav

Pre-gap length 0:00:02.00

Peak level 93.6 %
Extraction speed 4.6 X
Track quality 100.0 %
Copy CRC F843BFBE
Accurately ripped (confidence 2) [613EE28C] (AR v2)
Copy OK

Track 2

Filename F:Extract Audio Copyby fovit2 - Now It's Over.wav

Pre-gap length 0:00:02.00

Peak level 65.5 %
Extraction speed 1.2 X
Track quality 99.9 %
Copy CRC 1DFBEAFA
Accurately ripped (confidence 2) [92A36349] (AR v2)
Copy OK

Track 3

Filename F:Extract Audio Copyby fovit3 - Romance.wav

Pre-gap length 0:00:02.00

Peak level 68.0 %
Extraction speed 1.1 X
Track quality 100.0 %
Copy CRC 850A0765
Accurately ripped (confidence 2) [2A5C6F3B] (AR v2)
Copy OK

Track 4

Filename F:Extract Audio Copyby fovit4 - Springwind.wav

Pre-gap length 0:00:02.00

Peak level 94.2 %
Extraction speed 1.5 X
Track quality 99.9 %
Copy CRC C71807EF
Accurately ripped (confidence 2) [EA634F71] (AR v2)
Copy OK

Track 5

Filename F:Extract Audio Copyby fovit5 - Dear Little Friend.wav

Pre-gap length 0:00:02.00

Peak level 93.9 %
Extraction speed 1.6 X
Track quality 100.0 %
Copy CRC 68B24E68
Accurately ripped (confidence 2) [1A530EFE] (AR v2)
Copy OK

Track 6

Filename F:Extract Audio Copyby fovit6 - Red Morningbird.wav

Pre-gap length 0:00:02.00

Peak level 93.6 %
Extraction speed 2.0 X
Track quality 100.0 %
Copy CRC F6408B22
Accurately ripped (confidence 2) [47E38D83] (AR v2)
Copy OK


All tracks accurately ripped

No errors occurred

End of status report

==== Log checksum AEAC4789C915A20FDC3DF8A35110C7AED6A6A4755C6CFC498185F0B2540687DD ====

[CUETools log; Date: 07.02.2016 17:09:44; Version: 2.1.4]
[CTDB TOCID: xEJL1LuCiVKKpB64S6sl0KlGVe4-] found.
Track | CTDB Status
1 | (2/2) Accurately ripped
2 | (2/2) Accurately ripped
3 | (2/2) Accurately ripped
4 | (2/2) Accurately ripped
5 | (2/2) Accurately ripped
6 | (2/2) Accurately ripped
[AccurateRip ID: 0008924f-002ddbb3-5409c506] found.
Track [ CRC | V2 ] Status
01 [88f6b087|613ee28c] (2+2/4) Accurately ripped
02 [2b12200c|92a36349] (2+2/4) Accurately ripped
03 [85e093b1|2a5c6f3b] (2+2/4) Accurately ripped
04 [df29e22f|ea634f71] (2+2/4) Accurately ripped
05 [0c4939bb|1a530efe] (2+2/4) Accurately ripped
06 [a132b2ec|47e38d83] (2+2/4) Accurately ripped

Track Peak [ CRC32 ] [W/O NULL] [ LOG ]
– 94,2 [A438A18E] [9DB97B01]
01 93,6 [F843BFBE] [338430C7] CRC32
02 65,5 [1DFBEAFA] [2E50D3A9] CRC32
03 68,0 [850A0765] [E757FC19] CRC32
04 94,2 [C71807EF] [BCDAFCC7] CRC32
05 93,9 [68B24E68] [0957E7AE] CRC32
06 93,6 [F6408B22] [6556FAD2] CRC32

Thanks to Fovit

LOSSLESS:

_______________

MP3 320 kbps:

_______________

Covers: