V.A. - Krautrock: Music For Your Brain Vol. 1 [6CD Box Set] (2005) (Repost)


V.A. - Krautrock: Music For Your Brain Vol. 1 [6CD Box Set] (2005)
EAC Rip | WavPack (image+.cue+log) - 3,37 GB | MP3 CBR 320 kbps (LAME 3.93) - 1,11 GB | Covers - 63 MB
Genre: Progressive/Krautrock | RAR 3% Rec. | Label: Target Music (06024 9831762 (4))

This is an extraordinary compilation of the progressive and psychedelic music sub-genre known as "Krautrock". On six CDs, consisting of nearly 480 minutes of music, you will find an overview of some of the most creative styles of music from the "Deutschrock"-phase. This is the first time that such a huge spectrum of bands and artists of so many varying styles within this genre is found on one compilation. Accordingly, it is an absolute highlight for veteran fans as well as newcomers. Embryo, Scorpions, Grobschnitt, Guru Guru, Eloy, Kraan, Novalis and many more.

CD 1 Tracklist:
01. Lucifer’s Friend - Ride the Sky
02. Birth Control - The Work is Done
03. Cravinkel - Two Circles
04. Os Mundi - A Question of Decision
05. Embryo - Radio Marrakesch / Orient Express
06. Sperrmull - Pat Casey
07. Lava - Tears are Going Home
08. Jane - Hangman (Live)
09. Professor Wolfff - Hans im Glück
10. Scorpions - It All Depends
11. Grobschnitt - Drummer’s Dream
12. Electric Sandwich - China
13. Weed - Sweet Morning Light

Total time: 01:19:49

CD 2 Tracklist:
01. Rattles - The Wich (Album version)
02. Frumpy - How The Gipsy Was Born
03. Gomorrha - I Turned To See Whose Voice It Was
04. Grobschnitt - Jupp Vater Schmidts Wandertag
05. Guru Guru - Samantha's Rabbit
06. Kin Ping Meh - Fairy-Tales
07. Hölderlin - Requim für einen Wicht
08. Jane - Daytime
09. Weed - Lonely Ship
10. Abacus - Song For Brunhilde
11. Odin - Tribute To Frank
12. Yatha Sidra - A Meditation Mass Part 3

Total time: 01:18:51

CD 3 Tracklist:
01. Eloy - Castle In The Air
02. Kraan - Nam Nam
03. Atlantis - It's Getting Better!
04. Klaus Schulze - Mental Door
05. Cluster - Hollywood
06. Faust - So Far
07. Harmonia - Watussi
08. Curly Curve - Queen Of Spades
09. Gomorrha - Dance On A Volcano
10. Sperrmull - No Freak Out

Total time: 01:19:49

CD 4 Tracklist:
01. Wonderland - Moscow
02. Frumpy - Take Care Of Illusion
03. Faust - Why Don't You Eat Carrots
04. Epitaph - Fly
05. Guru Guru - Der Elektrolurch
06. Eroc - Norderland
07. Topas - Train To An Island
08. Novalis - Impressionen
09. Jane - Air And The End

Total time: 01:19:08

CD 5 Tracklist:
01. Randy Pie - Highway Driver
02. Birth Control - Gamma Ray
03. Can Mother Sky
04. Topas - Hurricane
05. Guru Guru - Ooga Booga
06. Atlantis - Friends
07. Grobschnitt - Traum und Wirklichkeit
08. Embryo - A Place To Go
09. Lucifer’s Friend - Lucifer’s Friend
10. Novalis - Wer Schmetterlinge lachen hört

Total time: 01:17:27

CD 6 Tracklist:
01. Curly Curve - Hell And Booze
02. Lucifer’s Friend - Sorrow
03. Lava - Holy Fool
04. Grobschnitt - Anywhere
05. La Düsseldorf - Rheinita
06. Harmonia - Dino
07. Randy Pie - Wintersong
08. Jane - Windows
09. Cravinkel - About Mother And Son
10. Dull Knife - Tumberlin' Down
11. Eroc - Wolkenreise
12. Udo Linderberg - Alles klar auf der Andrea Doria
13. Wallenstein - Charline

Total time: 01:20:57

EAC extraction logfile from 22. December 2006, 21:10 for CD
Various / Krautrock-Music for your Brain CD1

Used drive : PIONEER DVD-RW DVR-109 Adapter: 0 ID: 0
Read mode : Secure with NO C2, accurate stream, disable cache
Read offset correction : 691
Overread into Lead-In and Lead-Out : No

Used output format : Internal WAV Routines
44.100 Hz; 16 Bit; Stereo

Other options :
Fill up missing offset samples with silence : Yes
Delete leading and trailing silent blocks : No
Native Win32 interface for Win NT & 2000


Range status and errors
Selected range
Filename F:Daten-MP3VariousKrautrock - Music for your BrainLossLessVarious - Krautrock-Music for your Brain CD1.wav

Peak level 100.0 %
Range quality 100.0 %
CRC 393DACCF
Copy OK

No errors occured

End of status report

[CUETools log; Date: 06.02.2016 23:06:53; Version: 2.1.4]
[CTDB TOCID: Ks6OlRilYwREDNTL.8BJCsqfD_w-] found.
Track | CTDB Status
1 | (20/20) Accurately ripped
2 | (20/20) Accurately ripped
3 | (20/20) Accurately ripped
4 | (20/20) Accurately ripped
5 | (20/20) Accurately ripped
6 | (19/20) Accurately ripped
7 | (19/20) Accurately ripped
8 | (19/20) Accurately ripped
9 | (18/20) Accurately ripped
10 | (19/20) Accurately ripped
11 | (19/20) Accurately ripped
12 | (19/20) Accurately ripped
13 | (19/20) Accurately ripped
[AccurateRip ID: 00242556-0173804f-ca12b50d] found.
Track [ CRC | V2 ] Status
01 [1d7f8d52|180630c5] (00+00/42) No match
02 [76378fab|857e662d] (00+00/42) No match
03 [0ca5fafa|73dc62a1] (00+00/42) No match
04 [f03c869f|ae695678] (00+00/41) No match
05 [d590b7e6|24e38a76] (00+00/41) No match
06 [98f027b6|2575d182] (00+00/43) No match
07 [87706962|eede507f] (00+00/43) No match
08 [11c9d87b|8e6c3df0] (00+00/41) No match
09 [6ff3d96c|9cc6fb94] (00+00/40) No match
10 [bc33abde|09849c4f] (00+00/41) No match
11 [95964e06|fa1f8b43] (00+00/42) No match
12 [e8436e31|a96053e6] (00+00/37) No match
13 [fdb486d8|aee35257] (00+00/39) No match
Offsetted by -643:
01 [163752f3] (23/42) Accurately ripped
02 [a1ad93dc] (23/42) Accurately ripped
03 [51178fb7] (23/42) Accurately ripped
04 [97d53647] (22/41) Accurately ripped
05 [a917aa06] (21/41) Accurately ripped
06 [f989b7fe] (22/43) Accurately ripped
07 [ccd9691d] (22/43) Accurately ripped
08 [8368bb11] (23/41) Accurately ripped
09 [fe819638] (22/40) Accurately ripped
10 [2e8f2d49] (21/41) Accurately ripped
11 [4d48ba42] (22/42) Accurately ripped
12 [93393d96] (19/37) Accurately ripped
13 [b71ddc39] (19/39) Accurately ripped

Track Peak [ CRC32 ] [W/O NULL] [ LOG ]
– 100,0 [393DACCF] [F2AA9C2C] CRC32
01 99,9 [6E2DE263] [A32DB0B9]
02 100,0 [D9225376] [49FF1F62]
03 99,9 [419118AD] [A67874AA]
04 99,9 [0D86802B] [A9287BCC]
05 99,9 [612F9BA1] [6298C4E2]
06 82,1 [34F9845C] [9A508BC1]
07 90,1 [71E135FB] [1D10DBD7]
08 99,9 [7E22ADD7] [FDAE32FA]
09 99,9 [D39EEC76] [E57D5123]
10 99,9 [CDBBDCB5] [1D7DFB0B]
11 98,8 [45B6C26D] [6D15D0B5]
12 99,9 [BCD8ADE6] [D33EA81D]
13 99,9 [28C90575] [A7F2F3AF]

EAC extraction logfile from 22. December 2006, 21:35 for CD
Various / Krautrock-Music for your Brain CD2

Used drive : PIONEER DVD-RW DVR-109 Adapter: 0 ID: 0
Read mode : Secure with NO C2, accurate stream, disable cache
Read offset correction : 691
Overread into Lead-In and Lead-Out : No

Used output format : Internal WAV Routines
44.100 Hz; 16 Bit; Stereo

Other options :
Fill up missing offset samples with silence : Yes
Delete leading and trailing silent blocks : No
Native Win32 interface for Win NT & 2000


Range status and errors
Selected range
Filename F:Daten-MP3VariousKrautrock - Music for your BrainLossLessVarious - Krautrock-Music for your Brain CD2.wav

Peak level 98.8 %
Range quality 99.9 %
CRC E4DC9775
Copy OK

No errors occured

End of status report

[CUETools log; Date: 06.02.2016 23:08:12; Version: 2.1.4]
[CTDB TOCID: UcqE6dOzValVv7LwCE_74m7KgBw-] found.
Track | CTDB Status
1 | (22/22) Accurately ripped
2 | (22/22) Accurately ripped
3 | (22/22) Accurately ripped
4 | (22/22) Accurately ripped
5 | (22/22) Accurately ripped
6 | (22/22) Accurately ripped
7 | (22/22) Accurately ripped
8 | (22/22) Accurately ripped
9 | (22/22) Accurately ripped
10 | (22/22) Accurately ripped
11 | (22/22) Accurately ripped
12 | (21/22) Accurately ripped
[AccurateRip ID: 00235d81-0149db55-b5127a0c] found.
Track [ CRC | V2 ] Status
01 [cda26b3b|04af4a77] (00+00/41) No match
02 [90c32a6d|cf324f6f] (00+00/39) No match
03 [3da8fc7f|8534a720] (00+00/40) No match
04 [f9f96b46|404786e5] (00+00/40) No match
05 [8d13590c|703b1ebc] (00+00/39) No match
06 [7056cb99|617c3d8a] (00+00/39) No match
07 [9f9f9d6c|09272605] (00+00/39) No match
08 [f5f4a16d|13ae5763] (00+00/40) No match
09 [967f8a42|fc201115] (00+00/39) No match
10 [a5d5bf60|dff03bf3] (00+00/39) No match
11 [516b4e68|c90ed643] (00+00/39) No match
12 [8bdfb4e8|38c5366d] (00+00/41) No match
Offsetted by -643:
01 [7fa4b110] (23/41) Accurately ripped
02 [dd931c34] (22/39) Accurately ripped
03 [a8bccfc7] (23/40) Accurately ripped
04 [c96d5fa6] (23/40) Accurately ripped
05 [0114cc87] (22/39) Accurately ripped
06 [67413398] (22/39) Accurately ripped
07 [38dd95e2] (22/39) Accurately ripped
08 [ff5a6899] (23/40) Accurately ripped
09 [45a76196] (22/39) Accurately ripped
10 [7525d03d] (22/39) Accurately ripped
11 [a5717d4b] (22/39) Accurately ripped
12 [b599ab80] (23/41) Accurately ripped

Track Peak [ CRC32 ] [W/O NULL] [ LOG ]
– 98,8 [E4DC9775] [5F2C1B58] CRC32
01 96,6 [F72776E2] [31F3A555]
02 96,6 [053B88C8] [B3E65D24]
03 96,6 [C10D88AD] [22140801]
04 98,8 [D85D77C9] [B98898C7]
05 96,6 [3780A9D2] [BD241A16]
06 96,6 [57E08636] [B78DE0A4]
07 96,6 [9A5E170E] [D23D2237]
08 96,6 [260927F3] [DBEC0349]
09 96,5 [33A32C53] [A6B8CCD5]
10 96,6 [7C9E7881] [4F58F1DF]
11 96,5 [7716BE28] [9AEA9101]
12 96,6 [D6C8E5DD] [D775EA12]

EAC extraction logfile from 22. December 2006, 21:54 for CD
Various / Krautrock-Music for your Brain CD3

Used drive : PIONEER DVD-RW DVR-109 Adapter: 0 ID: 0
Read mode : Secure with NO C2, accurate stream, disable cache
Read offset correction : 691
Overread into Lead-In and Lead-Out : No

Used output format : Internal WAV Routines
44.100 Hz; 16 Bit; Stereo

Other options :
Fill up missing offset samples with silence : Yes
Delete leading and trailing silent blocks : No
Native Win32 interface for Win NT & 2000


Range status and errors
Selected range
Filename F:Daten-MP3VariousKrautrock - Music for your BrainLossLessVarious - Krautrock-Music for your Brain CD3.wav

Peak level 99.2 %
Range quality 100.0 %
CRC 68CA902B
Copy OK

No errors occured

End of status report

[CUETools log; Date: 06.02.2016 23:09:25; Version: 2.1.4]
[CTDB TOCID: P0R8HwiYNtO5Qxus3.kMTNNElUQ-] found.
Track | CTDB Status
1 | (22/22) Accurately ripped
2 | (22/22) Accurately ripped
3 | (22/22) Accurately ripped
4 | (22/22) Accurately ripped
5 | (22/22) Accurately ripped
6 | (22/22) Accurately ripped
7 | (22/22) Accurately ripped
8 | (22/22) Accurately ripped
9 | (22/22) Accurately ripped
10 | (21/22) Accurately ripped
[AccurateRip ID: 001eff01-00f801ce-a112b50a] found.
Track [ CRC | V2 ] Status
01 [a54fc037|0e134379] (00+00/38) No match
02 [72fa4721|532b2a93] (00+00/38) No match
03 [bd9aaa65|cf7754ca] (00+00/38) No match
04 [fce35cf7|45353926] (00+00/38) No match
05 [aea4fa79|78567f05] (00+00/37) No match
06 [753471ff|f75e4a4b] (00+00/38) No match
07 [4e9a7d51|8c561c6f] (00+00/38) No match
08 [755d4acc|47f32735] (00+00/38) No match
09 [da8946f2|d9e0ed17] (00+00/38) No match
10 [baab979b|76bb8ccc] (00+00/40) No match
Offsetted by -643:
01 [5660ac0b] (21/38) Accurately ripped
02 [d770b3ce] (21/38) Accurately ripped
03 [796ebe16] (21/38) Accurately ripped
04 [34972ebb] (21/38) Accurately ripped
05 [42431c17] (20/37) Accurately ripped
06 [a23ee841] (21/38) Accurately ripped
07 [8b97cbcf] (21/38) Accurately ripped
08 [dd5fc29c] (21/38) Accurately ripped
09 [b2ad72ec] (21/38) Accurately ripped
10 [b2ce34b7] (22/40) Accurately ripped

Track Peak [ CRC32 ] [W/O NULL] [ LOG ]
– 99,2 [68CA902B] [DDC8F376] CRC32
01 98,8 [48733E6C] [75D39E65]
02 98,8 [DAE4CA52] [FE656316]
03 99,2 [73D663BC] [631A1EA0]
04 98,8 [FCAEEC0C] [12E41AB9]
05 98,8 [47B93DF1] [EA88E7AB]
06 98,8 [D022AE25] [7485479F]
07 98,8 [7A53F61B] [76817FCF]
08 98,8 [FA1CD369] [99D23378]
09 98,8 [482D4CE7] [199074C1]
10 98,8 [7522DFFA] [9D66A403]

EAC extraction logfile from 22. December 2006, 22:17 for CD
Various / Krautrock-Music for your Brain CD4

Used drive : PIONEER DVD-RW DVR-109 Adapter: 0 ID: 0
Read mode : Secure with NO C2, accurate stream, disable cache
Read offset correction : 691
Overread into Lead-In and Lead-Out : No

Used output format : Internal WAV Routines
44.100 Hz; 16 Bit; Stereo

Other options :
Fill up missing offset samples with silence : Yes
Delete leading and trailing silent blocks : No
Native Win32 interface for Win NT & 2000


Range status and errors
Selected range
Filename F:Daten-MP3VariousKrautrock - Music for your BrainLossLessVarious - Krautrock-Music for your Brain CD4.wav

Peak level 99.9 %
Range quality 99.9 %
CRC 60893B1F
Copy OK

No errors occured

End of status report

[CUETools log; Date: 06.02.2016 23:10:01; Version: 2.1.4]
[CTDB TOCID: 8V4JZvwvwBF8YDOJ8YprViGGt0g-] found.
Track | CTDB Status
1 | (20/20) Accurately ripped
2 | (20/20) Accurately ripped
3 | (20/20) Accurately ripped
4 | (20/20) Accurately ripped
5 | (20/20) Accurately ripped
6 | (19/20) Accurately ripped
7 | (20/20) Accurately ripped
8 | (19/20) Accurately ripped
9 | (19/20) Accurately ripped
[AccurateRip ID: 001a65c5-00c4a4b4-87128b09] found.
Track [ CRC | V2 ] Status
01 [7e1a91be|d5f239f3] (00+00/38) No match
02 [212eabde|9fb1d831] (00+00/38) No match
03 [9a410280|901b726c] (00+00/38) No match
04 [a7b2cd9e|11d876e8] (00+00/38) No match
05 [2d8bd8b2|3ef3f994] (00+00/38) No match
06 [99757992|d2dcc89b] (00+00/39) No match
07 [0e13025b|d9ea789f] (00+00/39) No match
08 [72332791|2acd2850] (00+00/38) No match
09 [d2dc2c77|96c9b5f2] (00+00/38) No match
Offsetted by -643:
01 [5fc77870] (21/38) Accurately ripped
02 [c58e3eef] (21/38) Accurately ripped
03 [ad242068] (21/38) Accurately ripped
04 [79d1a54c] (21/38) Accurately ripped
05 [eca68b5c] (21/38) Accurately ripped
06 [28872647] (21/39) Accurately ripped
07 [c151944f] (21/39) Accurately ripped
08 [6a73df64] (21/38) Accurately ripped
09 [0c31e492] (20/38) Accurately ripped

Track Peak [ CRC32 ] [W/O NULL] [ LOG ]
– 99,9 [60893B1F] [02D4E58D] CRC32
01 99,9 [1EAA13BE] [C9A9BC07]
02 99,9 [0EF9E93E] [418306B4]
03 99,9 [91DD5404] [BFE6251D]
04 81,9 [AE6D62B6] [93FCBBF7]
05 99,9 [D276B5B4] [5F7FD09C]
06 98,8 [3AA4F0F5] [5BB5E7E8]
07 99,9 [18B68F2E] [AD521EED]
08 99,9 [9327BF95] [8AC30391]
09 99,9 [CFC12026] [9B862E9A]

EAC extraction logfile from 22. December 2006, 22:36 for CD
Various / Krautrock-Music for your Brain CD5

Used drive : PIONEER DVD-RW DVR-109 Adapter: 0 ID: 0
Read mode : Secure with NO C2, accurate stream, disable cache
Read offset correction : 691
Overread into Lead-In and Lead-Out : No

Used output format : Internal WAV Routines
44.100 Hz; 16 Bit; Stereo

Other options :
Fill up missing offset samples with silence : Yes
Delete leading and trailing silent blocks : No
Native Win32 interface for Win NT & 2000


Range status and errors
Selected range
Filename F:Daten-MP3VariousKrautrock - Music for your BrainLossLessVarious - Krautrock-Music for your Brain CD5.wav

Peak level 98.8 %
Range quality 100.0 %
CRC 1035E582
Copy OK

No errors occured

End of status report

[CUETools log; Date: 06.02.2016 23:10:57; Version: 2.1.4]
[CTDB TOCID: yeq6Pq0xWVKDiqBn9VsncWYGBOc-] found.
Track | CTDB Status
1 | (21/21) Accurately ripped
2 | (21/21) Accurately ripped
3 | (20/21) Accurately ripped
4 | (21/21) Accurately ripped
5 | (21/21) Accurately ripped
6 | (21/21) Accurately ripped
7 | (21/21) Accurately ripped
8 | (21/21) Accurately ripped
9 | (21/21) Accurately ripped
10 | (18/21) Accurately ripped
[AccurateRip ID: 001e31ed-00f0c827-7e12270a] found.
Track [ CRC | V2 ] Status
01 [a76c9917|ca81898f] (00+00/38) No match
02 [75ec1133|f28d97a8] (00+00/39) No match
03 [770500cb|193ea558] (00+00/38) No match
04 [c24afac4|b0cb5e71] (00+00/38) No match
05 [f713af26|c0ed0400] (00+00/38) No match
06 [8b098c97|4cb4d208] (00+00/39) No match
07 [561194c7|f218b04a] (00+00/39) No match
08 [6cf1f2ed|5c371eed] (00+00/38) No match
09 [0ceb5652|05b3f5ad] (00+00/38) No match
10 [83dc2235|2435ede3] (00+00/38) No match
Offsetted by -643:
01 [2e055238] (21/38) Accurately ripped
02 [f3c4ce2a] (22/39) Accurately ripped
03 [6450935e] (21/38) Accurately ripped
04 [ee34ff94] (21/38) Accurately ripped
05 [65988e8c] (21/38) Accurately ripped
06 [7d95a915] (22/39) Accurately ripped
07 [10ca0846] (22/39) Accurately ripped
08 [ce8e8dcd] (21/38) Accurately ripped
09 [c0e046c9] (21/38) Accurately ripped
10 [8db8be4f] (21/38) Accurately ripped

Track Peak [ CRC32 ] [W/O NULL] [ LOG ]
– 98,8 [1035E582] [96DE364E] CRC32
01 96,6 [23B52412] [0E239279]
02 96,6 [DCE594AC] [3F42EFFE]
03 96,6 [975267DF] [1D486B00]
04 95,8 [7C9B6EFC] [3A22366C]
05 96,6 [74338AD0] [86C92DA3]
06 96,6 [9F1197F0] [FD8B31A5]
07 98,8 [C20194DC] [E28E9294]
08 96,6 [AE228E58] [D36DA871]
09 96,6 [9932248F] [7DF8F4E2]
10 86,1 [653DB982] [804E320C]

EAC extraction logfile from 22. December 2006, 22:57 for CD
Various / Krautrock-Music for your Brain CD6

Used drive : PIONEER DVD-RW DVR-109 Adapter: 0 ID: 0
Read mode : Secure with NO C2, accurate stream, disable cache
Read offset correction : 691
Overread into Lead-In and Lead-Out : No

Used output format : Internal WAV Routines
44.100 Hz; 16 Bit; Stereo

Other options :
Fill up missing offset samples with silence : Yes
Delete leading and trailing silent blocks : No
Native Win32 interface for Win NT & 2000


Range status and errors
Selected range
Filename F:Daten-MP3VariousKrautrock - Music for your BrainLossLessVarious - Krautrock-Music for your Brain CD6.wav

Peak level 99.9 %
Range quality 100.0 %
CRC 4B87BE87
Copy OK

No errors occured

End of status report

[CUETools log; Date: 06.02.2016 23:11:59; Version: 2.1.4]
[CTDB TOCID: vFpOliqiRWBYPZjvNwKPZJocSHQ-] found.
Track | CTDB Status
1 | (19/19) Accurately ripped
2 | (18/19) Accurately ripped
3 | (19/19) Accurately ripped
4 | (18/19) Accurately ripped
5 | (18/19) Accurately ripped
6 | (18/19) Accurately ripped
7 | (18/19) Accurately ripped
8 | (18/19) Accurately ripped
9 | (18/19) Accurately ripped
10 | (18/19) Accurately ripped
11 | (18/19) Accurately ripped
12 | (18/19) Accurately ripped
13 | (18/19) Accurately ripped
[AccurateRip ID: 00295888-019cabd4-bb12f90d] found.
Track [ CRC | V2 ] Status
01 [eeadc16b|51671efa] (00+00/42) No match
02 [42fe656d|916cf0b7] (00+00/42) No match
03 [1501392c|0c8e545d] (00+00/42) No match
04 [77daef71|712a67e5] (00+00/43) No match
05 [59521c8a|61a78114] (00+00/42) No match
06 [83695d8a|261c5e53] (00+00/43) No match
07 [0d436549|2a469cfa] (00+00/42) No match
08 [ed420997|c0d33013] (00+00/43) No match
09 [0ebb3eca|9ac28cc4] (00+00/43) No match
10 [77dc7ff8|f052d4b1] (00+00/41) No match
11 [88b5acfb|521df2e8] (00+00/43) No match
12 [b9ac4a23|1779618a] (00+00/43) No match
13 [48b24e4d|7287dbe5] (00+00/40) No match
Offsetted by -643:
01 [667e9d0b] (23/42) Accurately ripped
02 [7e4a10bb] (23/42) Accurately ripped
03 [fe7caffe] (23/42) Accurately ripped
04 [7b300ca2] (24/43) Accurately ripped
05 [3bec72fd] (23/42) Accurately ripped
06 [eed70531] (24/43) Accurately ripped
07 [7ba126d6] (23/42) Accurately ripped
08 [6fccb013] (24/43) Accurately ripped
09 [f2650516] (24/43) Accurately ripped
10 [85ee650d] (22/41) Accurately ripped
11 [9978abb0] (24/43) Accurately ripped
12 [dcac6d78] (24/43) Accurately ripped
13 [c49dbcda] (22/40) Accurately ripped

Track Peak [ CRC32 ] [W/O NULL] [ LOG ]
– 99,9 [4B87BE87] [E8422986] CRC32
01 98,8 [85AF021F] [729D68A3]
02 95,0 [F23D8A73] [A0F81535]
03 99,9 [1FD8C62F] [50A90E89]
04 97,7 [BC176C7D] [A89FA307]
05 98,8 [B61A1C7B] [362A45B0]
06 98,8 [CF750DA7] [99D542FE]
07 98,8 [B83F9C96] [5C2C4A38]
08 98,5 [5C256E8C] [A40873A3]
09 98,8 [970E9C8C] [C79C0860]
10 98,8 [3A0FBABF] [1B934B83]
11 97,7 [DCDA3487] [988E94F9]
12 98,7 [7DD5AA45] [A4366A8F]
13 98,8 [33640B25] [1B8F3DAC]

Thanks to Antikalk

See also:




CD 1:

LOSSLESS:


MP3 320 kbps:

_____________________________

CD 2:

LOSSLESS:


MP3 320 kbps:

_____________________________

CD 3:

LOSSLESS:


MP3 320 kbps:

_____________________________

CD 4:

LOSSLESS:


MP3 320 kbps:

_____________________________

CD 5:

LOSSLESS:


MP3 320 kbps:

_____________________________

CD 6:

LOSSLESS:


MP3 320 kbps:

_____________________________

Covers: