Eberhard Schoener - Trance-Formation (1977) [Reissue 1991]


Eberhard Schoener - Trance-Formation (1977) [Reissue 1991]
EAC Rip | FLAC (image+.cue+log) - 210 MB | MP3 CBR 320 kbps (LAME 3.93) - 92 MB | Covers - 29 MB
Genre: Electronic, Berlin School, Ambient | RAR 3% Rec. | Label: Innovative Communication (IC 710.131)

Recorded in 1977, this classic work is an expression of Schoener's personal and subjective experiences from frequent trips to southeast Asia. Joined by Andy Summers (of The Police) on guitar and the other members of the band, The Secret Society, Schoener's Moog, Mellotron and keyboards lay a unique foundation for Gregorian vocals… It is recordings like this that show the timelessness of this musical genre.
Tracklist:
01. Falling in Trance
02. Shape of Things to Come
03. Frame of Mind
04. Signs of Emotion
05. Trance-Formation

Total time: 39:01

Exact Audio Copy V1.0 beta 1 from 15. November 2010

EAC extraction logfile from 8. March 2011, 18:40

Eberhard Schoener / Trance-Formation

Used drive : SONY CD-RW CRX210E1 Adapter: 0 ID: 0

Read mode : Secure
Utilize accurate stream : Yes
Defeat audio cache : Yes
Make use of C2 pointers : No

Read offset correction : 6
Overread into Lead-In and Lead-Out : No
Fill up missing offset samples with silence : Yes
Delete leading and trailing silent blocks : No
Null samples used in CRC calculations : Yes
Used interface : Installed external ASPI interface

Used output format : Internal WAV Routines
Sample format : 44.100 Hz; 16 Bit; Stereo


TOC of the extracted CD

Track | Start | Length | Start sector | End sector
––––––––––––––––––––––––––––-
1 | 0:00.00 | 5:52.25 | 0 | 26424
2 | 5:52.25 | 12:30.50 | 26425 | 82724
3 | 18:23.00 | 5:22.37 | 82725 | 106911
4 | 23:45.37 | 2:58.25 | 106912 | 120286
5 | 26:43.62 | 12:17.13 | 120287 | 175574


Range status and errors

Selected range

Filename C:UsersPublicEberhard Schoener - Trance-Formation.wav

Peak level 100.0 %
Extraction speed 2.2 X
Range quality 100.0 %
Test CRC 164DC578
Copy CRC 164DC578
Copy OK

No errors occurred


AccurateRip summary

Track 1 accurately ripped (confidence 6) [CB8891FA]
Track 2 accurately ripped (confidence 4) [E43259AF]
Track 3 accurately ripped (confidence 6) [367B96F0]
Track 4 accurately ripped (confidence 6) [D86AB013]
Track 5 accurately ripped (confidence 5) [05C4C43A]

All tracks accurately ripped

End of status report

==== Log checksum 50899328CD24D8E81237D24FB39FC9887B798161C91977EBED9CF9BF64366192 ====

[CUETools log; Date: 08.02.2016 17:30:08; Version: 2.1.4]
[CTDB TOCID: 4TTFP2cwCj9S83JiLa._3cIEgI0-] found.
Track | CTDB Status
1 | (10/10) Accurately ripped
2 | (10/10) Accurately ripped
3 | (10/10) Accurately ripped
4 | (10/10) Accurately ripped
5 | (10/10) Accurately ripped
[AccurateRip ID: 0007cfb4-00245ec7-2f092505] found.
Track [ CRC | V2 ] Status
01 [cb8891fa|741a91ad] (06+08/14) Accurately ripped
02 [e43259af|e21f10be] (04+08/12) Accurately ripped
03 [367b96f0|783438be] (06+08/14) Accurately ripped
04 [d86ab013|5ca8ee92] (06+08/14) Accurately ripped
05 [05c4c43a|ed34d833] (05+08/13) Accurately ripped

Track Peak [ CRC32 ] [W/O NULL] [ LOG ]
– 100,0 [164DC578] [99579C55] CRC32
01 95,4 [41A1B4E3] [F5849380]
02 64,1 [ACF1B12E] [5E4CA815]
03 74,4 [89E38D02] [B1AC87A6]
04 64,1 [75AD10D9] [4C58C2FD]
05 100,0 [DB54CE09] [C8167DCE]

Thanks to Key

LOSSLESS:

_______________

MP3 320 kbps:

_______________

Covers: