Marc Ribot's The Young Philadelphians - Live In Tokyo (2015) {Yellowbird}


Marc Ribot's The Young Philadelphians - Live In Tokyo (2015) {Yellowbird}
EAC 1.0b3 | FLAC tracks level 8 | Cue+Log+M3U | Full Scans 600dpi | 355MB + 5% Recovery
Genre: Jazz-Funk, Jazz-Rock, Punk-Funk

Jamaaladeen Tacuma, G. Calvin Weston, Mary Halvorson, Marc Ribot: 4 professional, harmolodic noise improvisers with an uncommon love of Philly soul and hard groove. Forever young, forever Philadelphian, forever fixated on the moment before dance went digital. Stuck in the groove like a scratch in your favorite record. Ladies and Gentlemen…the hardest working musicians in punk/funk/soul/noise: The Young Philadelphians!!!
Track List
01. Epidemic [Originally by The Trammps] 5:30
02. Love TKO [Originally by Teddy Pendergrass] 6:47
03. Fly, Robin, Fly [Originally by Silver Convention] 9:05
04. TSOP [Originally by MFSB Mother, Father, Sister, Brother] 9:22
05. Love Rollercoaster [Originally by Ohio Players] 7:22
06. Do It Anyway You Wanna [Originally by People’s Choice] 6:46
07. The Hustle [Originally by Van McCoy] 9:07

musicians
Marc Ribot - guitars, vocals
Mary Halvorson - guitars
Jamaaladeen Tacuma - bass
G. Calvin Weston - drums

strings:
Takako Siba - viola
Yoshie Kajiwara - violin
China Azuma - cello


Exact Audio Copy V1.0 beta 3 from 29. August 2011

EAC extraction logfile from 7. February 2016, 20:39

Marc Ribot's The Young Philadelphians / Live In Tokyo

Used drive : PLEXTOR DVDR PX-L890SA Adapter: 5 ID: 1

Read mode : Secure
Utilize accurate stream : Yes
Defeat audio cache : Yes
Make use of C2 pointers : No

Read offset correction : 6
Overread into Lead-In and Lead-Out : No
Fill up missing offset samples with silence : Yes
Delete leading and trailing silent blocks : No
Null samples used in CRC calculations : Yes
Used interface : Native Win32 interface for Win NT & 2000
Gap handling : Appended to previous track

Used output format : User Defined Encoder
Selected bitrate : 128 kBit/s
Quality : High
Add ID3 tag : No
Command line compressor : C:Program Files (x86)Exact Audio CopyFLACFLAC.EXE
Additional command line options : -8 -V -T "ARTIST=%artist%" -T "TITLE=%title%" -T "ALBUM=%albumtitle%" -T "DATE=%year%" -T "TRACKNUMBER=%tracknr%" -T "TOTALTRACKS=%numtracks%" -T "GENRE=%genre%" -T "ALBUMARTIST=%albumartist%" -T "ALBUM ARTIST=%albumartist%" -T "COMMENT=EAC Secure Mode, Test & Copy, AccurateRip, FLAC -8" %source%


TOC of the extracted CD

Track | Start | Length | Start sector | End sector
––––––––––––––––––––––––––––-
1 | 0:00.00 | 5:21.30 | 0 | 24104
2 | 5:21.30 | 6:47.03 | 24105 | 54632
3 | 12:08.33 | 9:04.67 | 54633 | 95499
4 | 21:13.25 | 9:21.48 | 95500 | 137622
5 | 30:34.73 | 7:22.10 | 137623 | 170782
6 | 37:57.08 | 6:46.00 | 170783 | 201232
7 | 44:43.08 | 9:14.20 | 201233 | 242802


Track 1

Filename E:1 - Love Epidemic.wav

Pre-gap length 0:00:02.00

Peak level 98.8 %
Extraction speed 3.8 X
Track quality 100.0 %
Test CRC 629AB477
Copy CRC 629AB477
Accurately ripped (confidence 1) [34AB6DA0] (AR v2)
Copy OK

Track 2

Filename E:2 - Love TKO.wav

Peak level 98.8 %
Extraction speed 3.9 X
Track quality 99.9 %
Test CRC 2D817934
Copy CRC 2D817934
Accurately ripped (confidence 1) [9EFD9D8E] (AR v2)
Copy OK

Track 3

Filename E:3 - Fly, Robin, Fly.wav

Peak level 98.8 %
Extraction speed 5.3 X
Track quality 100.0 %
Test CRC C43F1CC1
Copy CRC C43F1CC1
Accurately ripped (confidence 1) [39C2DDD3] (AR v2)
Copy OK

Track 4

Filename E:4 - TSOP (The Sound of Philadelphia).wav

Peak level 98.8 %
Extraction speed 6.0 X
Track quality 100.0 %
Test CRC 8118366F
Copy CRC 8118366F
Accurately ripped (confidence 1) [5F4A680B] (AR v2)
Copy OK

Track 5

Filename E:5 - Rollercoaster.wav

Peak level 98.8 %
Extraction speed 6.4 X
Track quality 100.0 %
Test CRC 9B3ACCD5
Copy CRC 9B3ACCD5
Accurately ripped (confidence 1) [72CBDAD3] (AR v2)
Copy OK

Track 6

Filename E:6 - Do It Anyway You Wanna.wav

Peak level 98.8 %
Extraction speed 5.8 X
Track quality 99.9 %
Test CRC 418C7843
Copy CRC 418C7843
Accurately ripped (confidence 1) [43AADE45] (AR v2)
Copy OK

Track 7

Filename E:7 - The Hustle.wav

Peak level 98.8 %
Extraction speed 7.4 X
Track quality 100.0 %
Test CRC 0BF592F3
Copy CRC 0BF592F3
Accurately ripped (confidence 1) [550ED28A] (AR v2)
Copy OK


All tracks accurately ripped

No errors occurred

End of status report

==== Log checksum 43F72319A9025F75056396100265007509358579D179A7992250BDFB41FB5E41 ====


––––––––––––––––––––––––––––––––––––––––
Analyzed: Marc Ribot's The Young Philadelphians / Live In Tokyo
––––––––––––––––––––––––––––––––––––––––

DR Peak RMS Duration Track
––––––––––––––––––––––––––––––––––––––––
DR10 -0.10 dB -12.14 dB 5:21 01-Love Epidemic
DR10 -0.10 dB -11.78 dB 6:47 02-Love TKO
DR10 -0.10 dB -12.41 dB 9:05 03-Fly, Robin, Fly
DR11 -0.10 dB -13.16 dB 9:22 04-TSOP (The Sound of Philadelphia)
DR10 -0.10 dB -12.29 dB 7:22 05-Rollercoaster
DR9 -0.10 dB -10.85 dB 6:46 06-Do It Anyway You Wanna
DR12 -0.10 dB -14.97 dB 9:14 07-The Hustle
––––––––––––––––––––––––––––––––––––––––

Number of tracks: 7
Official DR value: DR10

Samplerate: 44100 Hz
Channels: 2
Bits per sample: 16
Bitrate: 788 kbps
Codec: FLAC
================================================================================



Rip by jlgt