The Queers - Move Back Home (1995) [2007 Remaster]


The Queers - Move Back Home (1995/2007)
FLAC+CUE+LOG or MP3 CBR 320 | 44:13 mins | 348 or 102 MB

Here's the third remastered reissue from The Queers. The Queers are moving back in, so you can forget about turning their bedroom into a den. They sleep all day, never change their clothes, and play some of the most ferociously catchy punk rock in the world, but that doesn't mean they'll kick in for rent. This album tells a moronic tale of some rejects from New England, their failed love lives, their eating habits, their petty gripes, and their dumb pals. Hey, they're singing your life with their words! Remixed & Remastered by Mass Giorgini in 2007.


A quick scan of the words ("cretin," "psychopath," "rehab," etc.) in the song titles makes it clear that these guys are coming straight out of Ramones-land. And that's just fine, because Move Back Home demonstrates that the Queers are getting better and better at channeling the black leather jacket-clad spirit of their punk forefathers. They, of course, still haven't grown up – Joe still sings about not having a girlfriend and acting like a jerk, but no one else can do it better, save for the Mr. T Experience's Dr. Frank. The best demonstration of how good they've gotten at crafting great pop songs is the fact that it's hard to tell which song is a Brian Wilson cover and which one is an original.

~ Kembrew McLeod, all media guide



Tracklist:

01. She's A Cretin
02. Next Stop Rehab
03. High School Psychopath Part 2
04. If You Only Had A Brain
05. I Gotta Girlfriend
06. Hawaii
07. From Your Boy
08. Definitely
09. Everything's Going My Way
10. Cut It Dude
11. I Didn't Get Invited To The Prom
12. That Girl
13. Peppermint Girl
14. Surf Goddess [Bonus Track]
15. Mirage [Bonus Track]
16. Get Over You [Bonus Track]
17. Quit Talking Start Walking [Bonus Track]

all bonus tracks taken from "Surf Goddess" EP '1995

Exact Audio Copy V1.1 from 23. June 2015

EAC extraction logfile from 4. February 2016, 3:43

The Queers / Move Back Home (RM 2007)

Used drive : ASUS DRW-24B1ST Adapter: 1 ID: 0

Read mode : Secure
Utilize accurate stream : Yes
Defeat audio cache : Yes
Make use of C2 pointers : No

Read offset correction : 6
Overread into Lead-In and Lead-Out : No
Fill up missing offset samples with silence : Yes
Delete leading and trailing silent blocks : No
Null samples used in CRC calculations : Yes
Used interface : Native Win32 interface for Win NT & 2000

Used output format : Internal WAV Routines
Sample format : 44.100 Hz; 16 Bit; Stereo


TOC of the extracted CD

Track | Start | Length | Start sector | End sector
––––––––––––––––––––––––––––-
1 | 0:00.00 | 2:11.02 | 0 | 9826
2 | 2:11.02 | 2:03.47 | 9827 | 19098
3 | 4:14.49 | 2:04.54 | 19099 | 28452
4 | 6:19.28 | 2:04.31 | 28453 | 37783
5 | 8:23.59 | 2:48.57 | 37784 | 50440
6 | 11:12.41 | 1:55.11 | 50441 | 59076
7 | 13:07.52 | 3:36.04 | 59077 | 75280
8 | 16:43.56 | 2:34.66 | 75281 | 86896
9 | 19:18.47 | 2:17.04 | 86897 | 97175
10 | 21:35.51 | 2:00.59 | 97176 | 106234
11 | 23:36.35 | 3:05.56 | 106235 | 120165
12 | 26:42.16 | 1:40.48 | 120166 | 127713
13 | 28:22.64 | 4:51.07 | 127714 | 149545
14 | 33:13.71 | 3:15.49 | 149546 | 164219
15 | 36:29.45 | 3:02.60 | 164220 | 177929
16 | 39:32.30 | 2:32.49 | 177930 | 189378
17 | 42:05.04 | 2:07.69 | 189379 | 198972


Range status and errors

Selected range

Filename F:RehabillyQUEERS, The1995- Move Back Home [RM 2007]The Queers - Move Back Home (ASM-143CD).wav

Peak level 98.8 %
Extraction speed 8.0 X
Range quality 100.0 %
Test CRC D18519DF
Copy CRC D18519DF
Copy OK

No errors occurred


AccurateRip summary

Track 1 accurately ripped (confidence 2) [7A938EFF] (AR v1)
Track 2 accurately ripped (confidence 1) [1C9DE29D] (AR v2)
Track 3 accurately ripped (confidence 1) [BA984B42] (AR v2)
Track 4 accurately ripped (confidence 1) [351B3BD3] (AR v2)
Track 5 accurately ripped (confidence 1) [79423882] (AR v2)
Track 6 accurately ripped (confidence 2) [15B65A47] (AR v2)
Track 7 accurately ripped (confidence 1) [21E732FD] (AR v2)
Track 8 accurately ripped (confidence 1) [B38639B9] (AR v2)
Track 9 accurately ripped (confidence 1) [D4B4BF67] (AR v2)
Track 10 accurately ripped (confidence 1) [07778DE5] (AR v2)
Track 11 accurately ripped (confidence 1) [A3683768] (AR v2)
Track 12 accurately ripped (confidence 1) [331823E0] (AR v2)
Track 13 accurately ripped (confidence 1) [39FBB4C6] (AR v2)
Track 14 accurately ripped (confidence 1) [E7B09975] (AR v2)
Track 15 accurately ripped (confidence 1) [764D65C7] (AR v2)
Track 16 accurately ripped (confidence 1) [260FC0E2] (AR v2)
Track 17 accurately ripped (confidence 1) [C7849F95] (AR v2)

All tracks accurately ripped

End of status report

==== Log checksum 817587AD42A230716A4EAE3C35F81198CE3B47691DD227E2B60A56BCB832D15E ====


Produced by Larry Livermore
Recorded & Mixed by Mass Giorgini at Sonic Iguana
Re-Mixed & Remastered by Mass Giorgini in 2007.

• Joe "Queer" King - lead vocals, guitar
• Chris "B-Face" Barnard - bass guitar, backing vocals
• Hugh O'Neill - drums, backing vocals
+ Danny "Vapid" Schafer - guitar on Bonus Tracks

Original Release Date: May 5, 1995 / February 10, 1995
Reissue Date: March 13, 2007
Format: Original recording remastered
Label: Asian Man Records
Catalog No.: ASM-143CD

If you wanna leave some comment - login through the mirror:

The Right choice*
http://www.nitroflare.com/view/70771EF231630DC/TQ9507MBH58F.rar

all covers.png (64 MB)
http://www.nitroflare.com/view/BEE889E07099F12/TQ9507MBH440C.rar

lossy.mp3
http://www.nitroflare.com/view/FD943D800DF4814/TQ9507MBH20G.rar


* Original CD -> EAC Image, embedded cuesheet & more, foobar2000 ready, etc.
(all CUEs, LOGs and other technical info includes in the internal "CD_Support" archive).


_______________________________