Dee Dee Ramone & Terrorgruppe (Split EP, 2002) RESTORED


Dee Dee Ramone & Terrorgruppe (Split EP '2002)
FLAC+CUE+LOG or MP3 CBR 320 | DATA + Complete Scanwork | 86 or 27 MB

Wanker Records & Trash 2001 Records are German independent labels. When we had finished the deal with Dee Dee Ramone & Paul Kostabi and the German Band Terrorgruppe, we were very proud of it! First we had planed a small 7" in July 2002. Then we got the bad message about Dee Dee's death. We can't believe it… After the big shock we didn't know what's to do. We only sure to do something "For remember Dee Dee" with respect. So we had the idea with the names of fans who will remember for Dee Dee too.
Rest in peace, Dee Dee.

– booklet note


Tracklist:

01. DDR - I've Got A Right To Love Her - If I Want Too
02. DDR - Horror Hospital
03. Terrorgruppe - Dee Dee
04. Terrorgruppe - Sunny
05. Data (TG - Sunny, Videoclip - mpeg1)

Exact Audio Copy V0.99 prebeta 5 from 4. May 2009

EAC extraction logfile from 14. June 2010, 13:15

Various / Dee Dee Ramone & Terrorgruppe

Used drive : PIONEER DVD-RW DVR-116D Adapter: 1 ID: 0

Read mode : Secure
Utilize accurate stream : Yes
Defeat audio cache : Yes
Make use of C2 pointers : No

Read offset correction : 96
Overread into Lead-In and Lead-Out : No
Fill up missing offset samples with silence : Yes
Delete leading and trailing silent blocks : No
Null samples used in CRC calculations : Yes
Used interface : Installed external ASPI interface

Used output format : Internal WAV Routines
Sample format : 44.100 Hz; 16 Bit; Stereo


TOC of the extracted CD

Track | Start | Length | Start sector | End sector
––––––––––––––––––––––––––––-
1 | 0:00.00 | 2:48.21 | 0 | 12620
2 | 2:48.21 | 3:06.32 | 12621 | 26602
3 | 5:54.53 | 2:35.70 | 26603 | 38297
4 | 8:30.48 | 3:18.13 | 38298 | 53160
5 | 14:20.61 | 4:57.41 | 64561 | 86876


Range status and errors

Selected range

Filename C:AvaxHome.ruDee Dee Ramone & Terrorgruppe (Split EP, 2002)DDR & Terrorgruppe - Split (CD-EP).wav

Peak level 98.8 %
Range quality 100.0 %
Test CRC 61E62624
Copy CRC 61E62624
Copy OK

No errors occurred


AccurateRip summary

Track 1 accurately ripped (confidence 1) [698E0585]
Track 2 accurately ripped (confidence 1) [22B690E1]
Track 3 accurately ripped (confidence 1) [BC54CE63]
Track 4 accurately ripped (confidence 1) [A080A38F]

All tracks accurately ripped

End of status report

Tracks 1+2 produced by Paul Kostabi
Additional info see inside the booklet.

Release Date: Spring of 2003
Label: Trash 2001 Rec./Wanker Records
Catalog No.: T2001-CD009/WR-004

Wanna leave some comment anonymously - login through the mirror:

The Right choice*
http://www.nitroflare.com/view/B4FDE118DF971E2/DDR202TGSP985F.rar

all covers.jpg (76 MB)
http://www.nitroflare.com/view/02DF5ECDB7B5422/DDR202TGSP360DC.rar

lossy.mp3
http://www.nitroflare.com/view/7F3881DCA10458B/DDR202TGSP20G.rar


* Original CD -> EAC Image, embedded cuesheet & more, foobar2000 ready, etc.
(all CUEs, LOGs and other technical info includes in the internal "CD_Support" archive).


_______________________________