Les Paul and His Trio - Crazy Rhythm (2005)


Les Paul and His Trio - Crazy Rhythm (2005)
EAC | FLAC | Image (Cue&Log) ~ 204 Mb (incl 5%) | Mp3 (CBR320) ~ 117 Mb (incl 5%) | Scans included
Genre: Swing, Guitar Jazz, Traditional Pop | Label: Varese Sarabande | # 302 066 672 2 | Time: 00:46:04

It's virtually impossible to imagine modern music without the contributions of Les Paul. Not only was he a brilliant jazz guitarist with no fear of pop or country, he literally laid the framework for how a good electric guitar should be made when he designed his famous Les Paul model for Gibson Guitars. Add in the fact that he single-handedly invented multi-track recording with the release of "Lover" in 1948, and his influence is pervasive, if not always acknowledged, even in today's 21st century hip-hop world. This delightful collection brings together rare 16" radio transcription discs Paul did in 1944 and 1945, shortly after he was discharged from the U.S. Armed Forces. Although billed as a trio, the band here is really a quartet, with Paul on lead guitar, Cal Gooden, Jr. on rhythm guitar, Clint Nordquist on upright bass, and probably Bob Armstrong on piano (Paul used several piano players during this time period, but Armstrong is the most likely candidate for these sessions). The music is smooth and elegant swing, featuring delightfully unexpected stops, starts, and redirects, all tempered by Paul's liquid guitar lines, full of brilliant sustained notes. Highlights include a cover of Isham Jones' 1923 hit "Who's Sorry Now" (which became an even bigger hit for Connie Francis in 1958), an expansive version of Cole Porter's "What Is This Thing Called Love," and an elegant take on Hoagy Carmichael's "Lazy River." The real treats, though, are the three tracks that close the disc, featuring Paul's band plus vocals from the sultry Kay Starr and the violin playing of the great Joe Venuti. Smooth and fresh as rainwater running off a leaf, the transcriptions that make up Crazy Rhythm don't sound dated at all, and the sound is clear as a bell. Paul's most innovative and representative recordings were still in the future when these sessions were held, but the joyful elegance in his playing was already well established.

Review by Steve Leggett, Allmusic.com






Tracklist:

01. Who's Sorry Now? (01:30)
02. You Took Advantage Of Me (02:38)
03. For You (02:36)
04. What Is This Thing Called Love? (02:44)
05. I Never Knew (02:15)
06. Won't You Tell Me (02:17)
07. It's Only A Paper Moon (02:35)
08. Nice Work If You Can Get It (02:38)
09. I Can't Believe That You're In Love With Me (02:34)
10. The Man I Love (03:27)
11. Crazy Rhythm (02:38)
12. Deed I Do (01:50)
13. Lazy River (02:04)
14. Melodic Meal (03:00)
15. It Had To Be You (02:29)
16. My Future Just Passed (02:53)
17. There's A Lull In My Life (02:44)
18. What A Difference A Day Makes (03:03)


Exact Audio Copy V0.99 prebeta 4 from 23. January 2008

Отчёт EAC об извлечении, выполненном 14. августа 2009, 1:03

Les Paul / Crazy Rhythm

Дисковод: Optiarc DVD RW AD-7203S Adapter: 1 ID: 1

Режим чтения : Достоверность
Использование точного потока : Да
Отключение кэша аудио : Да
Использование указателей C2 : Нет

Коррекция смещения при чтении : 48
Способность читать области Lead-in и Lead-out : Нет
Заполнение пропущенных сэмплов тишиной : Да
Удаление блоков с тишиной в начале и конце : Нет
При вычислениях CRC использовались нулевые сэмплы : Да
Интерфейс : Встроенный Win32-интерфейс для Win NT/2000

Выходной формат : Пользовательский кодировщик
Выбранный битрейт : 1024 kBit/s
Качество : Высокий
Добавление ID3-тэга : Нет
Утилита сжатия : C:Program FilesExact Audio CopyFlacflac.exe
Дополнительные параметры : -V -8 -T "artist=%a" -T "title=%t" -T "album=%g" -T "date=%y" -T "tracknumber=%n" -T "genre=%m" %s


TOC извлечённого CD

Трек | Старт | Длительность | Начальный сектор | Конечный сектор
––––––––––––––––––––––––––––––––––-
1 | 0:00.00 | 1:30.25 | 0 | 6774
2 | 1:30.25 | 2:38.55 | 6775 | 18679
3 | 4:09.05 | 2:36.05 | 18680 | 30384
4 | 6:45.10 | 2:44.65 | 30385 | 42749
5 | 9:30.00 | 2:15.40 | 42750 | 52914
6 | 11:45.40 | 2:17.65 | 52915 | 63254
7 | 14:03.30 | 2:35.25 | 63255 | 74904
8 | 16:38.55 | 2:38.67 | 74905 | 86821
9 | 19:17.47 | 2:34.65 | 86822 | 98436
10 | 21:52.37 | 3:27.63 | 98437 | 114024
11 | 25:20.25 | 2:38.05 | 114025 | 125879
12 | 27:58.30 | 1:50.72 | 125880 | 134201
13 | 29:49.27 | 2:04.23 | 134202 | 143524
14 | 31:53.50 | 3:00.10 | 143525 | 157034
15 | 34:53.60 | 2:29.02 | 157035 | 168211
16 | 37:22.62 | 2:53.38 | 168212 | 181224
17 | 40:16.25 | 2:44.02 | 181225 | 193526
18 | 43:00.27 | 3:03.65 | 193527 | 207316


Характеристики диапазона извлечения и сообщения об ошибках

Выбранный диапазон

Имя файла D:EAC-FOLDER2005-Les Paul - Crazy Rhythm2005-Les Paul - Crazy Rhythm2005-Les Paul - Crazy Rhythm.wav

Пиковый уровень 99.9 %
Качество диапазона 100.0 %
CRC теста 10F15181
CRC копии 10F15181
Копирование… OK

Ошибок не произошло


AccurateRip: сводка

Трек 1 точное извлечение (доверие 1) [23926F5D]
Трек 2 точное извлечение (доверие 1) [160CB9BE]
Трек 3 точное извлечение (доверие 1) [BFCA4A1A]
Трек 4 точное извлечение (доверие 1) [B60676B2]
Трек 5 точное извлечение (доверие 1) [EC7D713C]
Трек 6 точное извлечение (доверие 1) [3E87B10D]
Трек 7 точное извлечение (доверие 1) [1C9A0C84]
Трек 8 точное извлечение (доверие 1) [01DE84C7]
Трек 9 точное извлечение (доверие 1) [11A9924E]
Трек 10 точное извлечение (доверие 1) [5849E610]
Трек 11 точное извлечение (доверие 1) [E603A9A6]
Трек 12 точное извлечение (доверие 1) [43552F60]
Трек 13 точное извлечение (доверие 1) [E38647D5]
Трек 14 точное извлечение (доверие 1) [4F045282]
Трек 15 точное извлечение (доверие 1) [CE2CE8FB]
Трек 16 точное извлечение (доверие 1) [F9F165DC]
Трек 17 точное извлечение (доверие 1) [F19EBF15]
Трек 18 точное извлечение (доверие 1) [B4DB2BCA]

Все треки извлечены точно

Конец отчёта

foobar2000 1.2 / Dynamic Range Meter 1.1.1
log date: 2016-02-10 19:08:23

––––––––––––––––––––––––––––––––––––––––
Analyzed: Les Paul / Crazy Rhythm
––––––––––––––––––––––––––––––––––––––––

DR Peak RMS Duration Track
––––––––––––––––––––––––––––––––––––––––
DR11 -0.01 dB -13.18 dB 1:30 01-Who's Sorry Now?
DR9 -0.01 dB -13.32 dB 2:39 02-You Took Advantage Of Me
DR12 -0.01 dB -15.84 dB 2:36 03-For You
DR13 -0.01 dB -15.32 dB 2:45 04-What Is This Thing Called Love?
DR13 -0.01 dB -14.96 dB 2:16 05-I Never Knew
DR11 -0.01 dB -14.00 dB 2:18 06-Won't You Tell Me
DR12 -0.01 dB -13.90 dB 2:35 07-It's Only A Paper Moon
DR12 -0.01 dB -14.00 dB 2:39 08-Nice Work If You Can Get It
DR11 -0.01 dB -12.98 dB 2:35 09-I Can't Believe That You're In Love With Me
DR12 -0.01 dB -15.43 dB 3:28 10-The Man I Love
DR12 -0.01 dB -14.61 dB 2:38 11-Crazy Rhythm
DR13 -0.01 dB -15.87 dB 1:51 12-Deed I Do
DR11 -0.01 dB -13.95 dB 2:04 13-Lazy River
DR12 -0.01 dB -14.08 dB 3:00 14-Melodic Meal
DR12 -0.01 dB -14.44 dB 2:29 15-It Had To Be You
DR9 0.00 dB -11.70 dB 2:54 16-My Future Just Passed
DR9 -0.08 dB -11.22 dB 2:44 17-There's A Lull In My Life
DR10 -0.10 dB -11.88 dB 3:04 18-What A Difference A Day Makes
––––––––––––––––––––––––––––––––––––––––

Number of tracks: 18
Official DR value: DR11

Samplerate: 44100 Hz
Channels: 2
Bits per sample: 16
Bitrate: 572 kbps
Codec: FLAC
================================================================================


All thanks to original releaser - jlhjlh