Daniel Zamir - Song For Comfort (2012) {High Fidelity}


Daniel Zamir - Song For Comfort (2012) {High Fidelity}
EAC 1.1 | FLAC tracks level 8 | Cue+Log+M3U | Full Scans 300dpi | 492MB + 5% Recovery
Genre: Jazz, Klezmer, Jewish, Ethnic Fusion

Daniel Zamir is probably one of the most influencial and busy musicians in Israel. Zamir is a virtuoso sax player / composer of what could be defined as “Jewish Jazz”, fusing together elements of Jewish sounds and high quality jazz, together with ethnic and world music elements. Zamir’s albums are the most successful jazz albums ever to be recorded in Israel, with high acclaim from the media and critics and with tremendous sellings.
Track List
01. Thirteen Attributes of Mercy (D. Zamir) (4:57)
02. Nine Months Till Birth B"H (D. Zamir) (5:09)
03. Eleven Represents the Thrown (D. Zamir) (5:30)
04. Five of Luck (D. Zamir) (7:02)
05. Seventeen Eight (D. Zamir) (4:21)
06. Sprinkler (Ihiel Maor - Moshe Vilensky) (4:15) Featuring: Yoni Rechter (4:15)
07. No Place (D. Zamir) (4:03) Featuring: Matisyahu (4:03)
08. Song for Comfort (3:11) (D. Zamir) Featuring: Matisyahu (3:11)
09. Till Tomorrow (Nathan Zach - Yoni Rechter) (5:05) Featuring: Yoni Rechter (5:05)
10. Ya'ala (Israel Najara - Ezra Aaron) Featuring: Berry Sakharof & Matisyahu (6:35)
11. Noon (Meir Aiel - David Broza) (5:37)
12. Seventy Seven (D. Zamir) (7:01)

musicians
Daniel Zamir - saxes, vocal, voices, arrangements, producing
Mark Juliano - Drums (except 11)
Shay Maestro - Piano (except 11)
Hagi Koen-Milo - Double Bass (except 11)
Yonatan Albalak - Guitars (6-11)
Nitay Hershkovitz - Piano (11)
Amir Bresler - Drums (11)
Gil'ad Abro - Double Bass (11)
Adam Mader - Violins (11)

Produced by Daniel Zamir


Exact Audio Copy V1.1 from 23. June 2015

EAC extraction logfile from 7. February 2016, 17:42

Daniel Zamir / Song For Comfort

Used drive : HL-DT-STDVDRAM GH24NSB0 Adapter: 1 ID: 0

Read mode : Secure
Utilize accurate stream : Yes
Defeat audio cache : Yes
Make use of C2 pointers : No

Read offset correction : 6
Overread into Lead-In and Lead-Out : No
Fill up missing offset samples with silence : Yes
Delete leading and trailing silent blocks : No
Null samples used in CRC calculations : Yes
Used interface : Native Win32 interface for Win NT & 2000
Gap handling : Appended to previous track

Used output format : User Defined Encoder
Selected bitrate : 1024 kBit/s
Quality : High
Add ID3 tag : No
Command line compressor : C:Program Files (x86)Exact Audio CopyFLACFLAC.EXE
Additional command line options : -V -8 -T "ARTIST=%artist%" -T "TITLE=%title%" -T "ALBUM=%albumtitle%" -T "DATE=%year%" -T "TRACKNUMBER=%tracknr%" -T "GENRE=%genre%" -T "COMMENT=ripped by Musicgate for new-team.org" %source% -o %dest%


TOC of the extracted CD

Track | Start | Length | Start sector | End sector
––––––––––––––––––––––––––––-
1 | 0:00.00 | 5:00.24 | 0 | 22523
2 | 5:00.24 | 5:12.48 | 22524 | 45971
3 | 10:12.72 | 5:31.73 | 45972 | 70869
4 | 15:44.70 | 7:09.19 | 70870 | 103063
5 | 22:54.14 | 4:23.57 | 103064 | 122845
6 | 27:17.71 | 4:18.00 | 122846 | 142195
7 | 31:35.71 | 4:05.69 | 142196 | 160639
8 | 35:41.65 | 3:14.24 | 160640 | 175213
9 | 38:56.14 | 5:10.64 | 175214 | 198527
10 | 44:07.03 | 6:40.71 | 198528 | 228598
11 | 50:47.74 | 5:42.16 | 228599 | 254264
12 | 56:30.15 | 7:06.24 | 254265 | 286238


Track 1

Filename D:Musicgate for new-team.orgDaniel Zamir - Song For Comfort - 2012 (High Fidelity)1 - Thirteen Attributes Of Mercy.wav

Pre-gap length 0:00:02.00

Peak level 98.8 %
Extraction speed 1.2 X
Track quality 100.0 %
Test CRC 4E563F96
Copy CRC 4E563F96
Accurately ripped (confidence 1) [EBFB1F2A] (AR v2)
Copy OK

Track 2

Filename D:Musicgate for new-team.orgDaniel Zamir - Song For Comfort - 2012 (High Fidelity)2 - Nine Months Till Birth B”H.wav

Pre-gap length 0:00:02.00

Peak level 98.7 %
Extraction speed 1.3 X
Track quality 100.0 %
Test CRC 659B469B
Copy CRC 659B469B
Accurately ripped (confidence 1) [D9CC8FB9] (AR v2)
Copy OK

Track 3

Filename D:Musicgate for new-team.orgDaniel Zamir - Song For Comfort - 2012 (High Fidelity)3 - Eleven Represents The Thrown.wav

Pre-gap length 0:00:02.00

Peak level 99.0 %
Extraction speed 1.4 X
Track quality 99.9 %
Test CRC C074AB76
Copy CRC C074AB76
Accurately ripped (confidence 1) [33971118] (AR v2)
Copy OK

Track 4

Filename D:Musicgate for new-team.orgDaniel Zamir - Song For Comfort - 2012 (High Fidelity)4 - Five Of Luck.wav

Pre-gap length 0:00:02.00

Peak level 99.9 %
Extraction speed 1.6 X
Track quality 99.9 %
Test CRC CCEB034C
Copy CRC CCEB034C
Cannot be verified as accurate (confidence 1) [C1A5FFF0], AccurateRip returned [F9B0FA35] (AR v2)
Copy OK

Track 5

Filename D:Musicgate for new-team.orgDaniel Zamir - Song For Comfort - 2012 (High Fidelity)5 - Seventeen Eight.wav

Pre-gap length 0:00:02.00

Peak level 97.9 %
Extraction speed 1.7 X
Track quality 100.0 %
Test CRC B8660B9D
Copy CRC B8660B9D
Accurately ripped (confidence 1) [A83B7C0F] (AR v2)
Copy OK

Track 6

Filename D:Musicgate for new-team.orgDaniel Zamir - Song For Comfort - 2012 (High Fidelity)6 - Sprinkler.wav

Pre-gap length 0:00:02.00

Peak level 100.0 %
Extraction speed 1.8 X
Track quality 100.0 %
Test CRC BCEB1C06
Copy CRC BCEB1C06
Cannot be verified as accurate (confidence 1) [720C2B82], AccurateRip returned [4CEF7C76] (AR v2)
Copy OK

Track 7

Filename D:Musicgate for new-team.orgDaniel Zamir - Song For Comfort - 2012 (High Fidelity)7 - No Place.wav

Pre-gap length 0:00:02.00

Peak level 99.0 %
Extraction speed 1.8 X
Track quality 100.0 %
Test CRC 72B2BE9F
Copy CRC 72B2BE9F
Accurately ripped (confidence 1) [EDB26510] (AR v2)
Copy OK

Track 8

Filename D:Musicgate for new-team.orgDaniel Zamir - Song For Comfort - 2012 (High Fidelity)8 - Song For Comfort.wav

Pre-gap length 0:00:02.00

Peak level 98.4 %
Extraction speed 1.9 X
Track quality 100.0 %
Test CRC CE872FB7
Copy CRC CE872FB7
Accurately ripped (confidence 1) [6A89DDC9] (AR v2)
Copy OK

Track 9

Filename D:Musicgate for new-team.orgDaniel Zamir - Song For Comfort - 2012 (High Fidelity)9 - Till Tomorrow.wav

Pre-gap length 0:00:02.00

Peak level 97.9 %
Extraction speed 2.1 X
Track quality 100.0 %
Test CRC 972A73F6
Copy CRC 972A73F6
Accurately ripped (confidence 1) [84B39C55] (AR v2)
Copy OK

Track 10

Filename D:Musicgate for new-team.orgDaniel Zamir - Song For Comfort - 2012 (High Fidelity)10 - Ya’ala.wav

Pre-gap length 0:00:02.00

Peak level 99.0 %
Extraction speed 2.2 X
Track quality 100.0 %
Test CRC A1CD3544
Copy CRC A1CD3544
Accurately ripped (confidence 1) [42092A83] (AR v2)
Copy OK

Track 11

Filename D:Musicgate for new-team.orgDaniel Zamir - Song For Comfort - 2012 (High Fidelity)11 - Noon.wav

Pre-gap length 0:00:02.00

Peak level 94.7 %
Extraction speed 2.3 X
Track quality 100.0 %
Test CRC DF4D7E1B
Copy CRC DF4D7E1B
Accurately ripped (confidence 1) [BF1C69A0] (AR v2)
Copy OK

Track 12

Filename D:Musicgate for new-team.orgDaniel Zamir - Song For Comfort - 2012 (High Fidelity)12 - Seventy Seven.wav

Pre-gap length 0:00:02.00

Peak level 98.5 %
Extraction speed 2.4 X
Track quality 100.0 %
Test CRC A664518E
Copy CRC A664518E
Accurately ripped (confidence 1) [845EF3E4] (AR v2)
Copy OK


10 track(s) accurately ripped
2 track(s) could not be verified as accurate

Some tracks could not be verified as accurate

No errors occurred

End of status report

==== Log checksum 7BDF339C10D1BDF3A1D531D8C4736EC0830A11614135D53AF49283A7FF9E744C ====


––––––––––––––––––––––––––––––––––––––––
Analyzed: Daniel Zamir / Song For Comfort
––––––––––––––––––––––––––––––––––––––––

DR Peak RMS Duration Track
––––––––––––––––––––––––––––––––––––––––
DR6 -0.10 dB -7.19 dB 5:00 01-Thirteen Attributes Of Mercy
DR6 -0.11 dB -7.39 dB 5:13 02-Nine Months Till Birth B”H
DR6 -0.08 dB -7.36 dB 5:32 03-Eleven Represents The Thrown
DR6 -0.01 dB -7.77 dB 7:09 04-Five Of Luck
DR6 -0.18 dB -7.22 dB 4:24 05-Seventeen Eight
DR7 0.00 dB -8.52 dB 4:18 06-Sprinkler
DR6 -0.09 dB -8.29 dB 4:06 07-No Place
DR6 -0.13 dB -7.23 dB 3:14 08-Song For Comfort
DR6 -0.18 dB -7.60 dB 5:11 09-Till Tomorrow
DR6 -0.09 dB -7.43 dB 6:41 10-Ya’ala
DR5 -0.47 dB -7.11 dB 5:42 11-Noon
DR6 -0.13 dB -7.22 dB 7:06 12-Seventy Seven
––––––––––––––––––––––––––––––––––––––––

Number of tracks: 12
Official DR value: DR6

Samplerate: 44100 Hz
Channels: 2
Bits per sample: 16
Bitrate: 1001 kbps
Codec: FLAC
================================================================================



Rip by Musicgate