Michel Benita - Ethics (2010) {ZigZag}


Michel Benita - Ethics (2010) {ZigZag}
EAC 1.0b3 | FLAC tracks level 8 | Cue+Log+M3U | Full Scans 600dpi | 307MB + 5% Recovery
Genre: Avant-Garde Jazz, Ethnic Fusion

Michel Benita, partner of Dewey Redman, Aldo Romano, Marc Ducret, Erik Truffaz and Nils-Petter Molvaer (also norvegian as Eivind Aarset) is acustomed to unsual meetings. Mieko Miyazaki’ Koto and graceful voice, Eivind Aarset’s norvegian guitar, Matthieu Michel’s poetical trumpet, Philippe Garcia’s urban rythms, all organized by a subtil groove, added with electronic compositions of Michel Bentia push us to a unknow place, possible meeting place for all the cultures.
Track List
01. Sugar on the Ground
02. Someday
03. Monday
04. Haikool
05. Free at Last
06. Man Wo
07. Oran Nan Raiders
08. Green Power
09. Ishidatami
10. Chemistry
11. Blue Jay Way

musicians
Michel Benita – double bass, programming
Mieko Miyazaki – koto, vocals
Eivind Aarset – guitars, electronics
Matthieu Michel – trumpet, lugelhorn
Philippe Garcia – drums, sampler


Exact Audio Copy V1.0 beta 3 from 29. August 2011

EAC extraction logfile from 11. February 2016, 11:51

Michel Benita / Ethics

Used drive : hp DVD-RAM GHB0N Adapter: 0 ID: 0

Read mode : Secure
Utilize accurate stream : Yes
Defeat audio cache : Yes
Make use of C2 pointers : No

Read offset correction : 6
Overread into Lead-In and Lead-Out : No
Fill up missing offset samples with silence : Yes
Delete leading and trailing silent blocks : No
Null samples used in CRC calculations : Yes
Used interface : Native Win32 interface for Win NT & 2000
Gap handling : Appended to previous track

Used output format : User Defined Encoder
Selected bitrate : 1024 kBit/s
Quality : High
Add ID3 tag : No
Command line compressor : C:Program Files (x86)Exact Audio CopyFLACFLAC.EXE
Additional command line options : -8 -V -T "ARTIST=%artist%" -T "TITLE=%title%" -T "ALBUM=%albumtitle%" -T "DATE=%year%" -T "TRACKNUMBER=%tracknr%" -T "TOTALTRACKS=%numtracks%" -T "GENRE=%genre%" -T "ALBUM ARTIST=%albumartist%" -T "ALBUMARTIST=%albumartist%" -T "COMMENT=EAC V1.0 beta 3, Secure Mode, Test & Copy, AccurateRip, FLAC -8" %source%


TOC of the extracted CD

Track | Start | Length | Start sector | End sector
––––––––––––––––––––––––––––-
1 | 0:00.00 | 7:39.27 | 0 | 34451
2 | 7:39.27 | 5:30.39 | 34452 | 59240
3 | 13:09.66 | 3:36.50 | 59241 | 75490
4 | 16:46.41 | 7:27.61 | 75491 | 109076
5 | 24:14.27 | 4:34.44 | 109077 | 129670
6 | 28:48.71 | 6:06.05 | 129671 | 157125
7 | 34:55.01 | 3:49.23 | 157126 | 174323
8 | 38:44.24 | 5:56.30 | 174324 | 201053
9 | 44:40.54 | 4:21.40 | 201054 | 220668
10 | 49:02.19 | 1:48.32 | 220669 | 228800
11 | 50:50.51 | 5:35.47 | 228801 | 253972


Track 1

Filename C:UsersMaisonDownloadsRips1 - Sugar On The Ground.wav

Pre-gap length 0:00:02.00

Peak level 100.0 %
Extraction speed 1.9 X
Track quality 100.0 %
Test CRC 4CD3F2F1
Copy CRC 4CD3F2F1
Accurately ripped (confidence 19) [3AE7B660] (AR v2)
Copy OK

Track 2

Filename C:UsersMaisonDownloadsRips2 - Someday.wav

Pre-gap length 0:00:00.16

Peak level 100.0 %
Extraction speed 2.2 X
Track quality 100.0 %
Test CRC 5B671393
Copy CRC 5B671393
Accurately ripped (confidence 20) [92CC967F] (AR v2)
Copy OK

Track 3

Filename C:UsersMaisonDownloadsRips3 - Monday.wav

Peak level 100.0 %
Extraction speed 2.3 X
Track quality 100.0 %
Test CRC 0556C86E
Copy CRC 0556C86E
Accurately ripped (confidence 19) [D79A3EE7] (AR v2)
Copy OK

Track 4

Filename C:UsersMaisonDownloadsRips4 - Haikool.wav

Pre-gap length 0:00:01.70

Peak level 100.0 %
Extraction speed 2.7 X
Track quality 100.0 %
Test CRC 278DBF97
Copy CRC 278DBF97
Accurately ripped (confidence 20) [CC8395B7] (AR v2)
Copy OK

Track 5

Filename C:UsersMaisonDownloadsRips5 - Free at Last.wav

Pre-gap length 0:00:01.70

Peak level 100.0 %
Extraction speed 2.7 X
Track quality 100.0 %
Test CRC 540D98C9
Copy CRC 540D98C9
Accurately ripped (confidence 19) [8DA865F6] (AR v2)
Copy OK

Track 6

Filename C:UsersMaisonDownloadsRips6 - Man Wo.wav

Pre-gap length 0:00:00.55

Peak level 100.0 %
Extraction speed 3.0 X
Track quality 100.0 %
Test CRC D0260FAA
Copy CRC D0260FAA
Accurately ripped (confidence 20) [B9AEBC14] (AR v2)
Copy OK

Track 7

Filename C:UsersMaisonDownloadsRips7 - Oran Nan Raiders.wav

Pre-gap length 0:00:01.22

Peak level 93.1 %
Extraction speed 3.0 X
Track quality 100.0 %
Test CRC BB6E2C09
Copy CRC BB6E2C09
Accurately ripped (confidence 20) [40B59D13] (AR v2)
Copy OK

Track 8

Filename C:UsersMaisonDownloadsRips8 - Green Power.wav

Peak level 100.0 %
Extraction speed 3.3 X
Track quality 100.0 %
Test CRC C8E07CC6
Copy CRC C8E07CC6
Accurately ripped (confidence 20) [DFBD8E92] (AR v2)
Copy OK

Track 9

Filename C:UsersMaisonDownloadsRips9 - Ishidatami.wav

Pre-gap length 0:00:01.15

Peak level 100.0 %
Extraction speed 3.3 X
Track quality 100.0 %
Test CRC 3D32F556
Copy CRC 3D32F556
Accurately ripped (confidence 20) [039CE749] (AR v2)
Copy OK

Track 10

Filename C:UsersMaisonDownloadsRips10 - Chemistry.wav

Pre-gap length 0:00:01.52

Peak level 89.1 %
Extraction speed 2.8 X
Track quality 100.0 %
Test CRC 9DEECA2B
Copy CRC 9DEECA2B
Accurately ripped (confidence 20) [D85AC5FA] (AR v2)
Copy OK

Track 11

Filename C:UsersMaisonDownloadsRips11 - Blue Jay Way.wav

Pre-gap length 0:00:00.34

Peak level 100.0 %
Extraction speed 2.9 X
Track quality 99.9 %
Test CRC EB7EED4F
Copy CRC EB7EED4F
Accurately ripped (confidence 20) [0A7ADAEF] (AR v2)
Copy OK


All tracks accurately ripped

No errors occurred

End of status report

==== Log checksum 7D6FF935F08AA0C18A38FA82221D1642D9D9D3F35332971F60E45B208F670D08 ====


––––––––––––––––––––––––––––––––––––––––
Analyzed: Michel Benita / Ethics
––––––––––––––––––––––––––––––––––––––––

DR Peak RMS Duration Track
––––––––––––––––––––––––––––––––––––––––
DR9 0.00 dB -11.13 dB 7:39 01-Sugar On The Ground
DR9 0.00 dB -11.16 dB 5:31 02-Someday
DR5 0.00 dB -6.68 dB 3:37 03-Monday
DR9 0.00 dB -12.47 dB 7:28 04-Haikool
DR8 0.00 dB -10.64 dB 4:35 05-Free at Last
DR9 0.00 dB -11.88 dB 6:06 06-Man Wo
DR12 -0.62 dB -18.36 dB 3:49 07-Oran Nan Raiders
DR8 0.00 dB -10.96 dB 5:56 08-Green Power
DR11 0.00 dB -13.49 dB 4:22 09-Ishidatami
DR10 -1.00 dB -14.40 dB 1:48 10-Chemistry
DR10 0.00 dB -13.46 dB 5:36 11-Blue Jay Way
––––––––––––––––––––––––––––––––––––––––

Number of tracks: 11
Official DR value: DR9

Samplerate: 44100 Hz
Channels: 2
Bits per sample: 16
Bitrate: 727 kbps
Codec: FLAC
================================================================================



Rip by tdelyon