Bob James - Foxie (1983) {Victor Japan}


Bob James - Foxie (1983) {Victor Japan}
EAC 1.0b3 | FLAC Image level 8 | Cue+Log | Full Scans 300dpi | 264MB + 5% Recovery
Genre: Jazz-Funk, Fusion

The career of Bob James is long, varied and continues to evolve at every turn. From his first days in Marshall, Missouri, the music of Bob James has captivated audiences throughout the world.
Track List
01. Ludwig (Beethoven-James) 6:44
02. Calaban (James) 2:48
03. Fireball (James) 5:46
04. Zebra Man (Miller) 6:08
05. Miranda (James) 4:58
06. Marco Polo (James) 6:46
07. Tell Me Tell Me (James) 3:39

musicians
Bob James - keyboards
Steve Gadd - drums
Peter Erskine - drums
Marcus Miller - bass
Ron Carter - bass
David Sanborn - soprano saxophone on track 4
Yogi Horton - drums
Gary King - bass
Will Lee - bass
Rob Zantay - synthesisers
Steve Khan - guitar
Hugh McCracken - guitar
Ralph MacDonald - percussion
Leonard "Doc" Gibbs - percussion

Produced by Bob James


Exact Audio Copy V1.0 beta 3 from 29. August 2011

Отчёт EAC об извлечении, выполненном 11. февраля 2016, 14:16

Bob James / Foxie

Дисковод: Optiarc DVD RW AD-7203S Adapter: 1 ID: 0

Режим чтения : Достоверность
Использование точного потока : Да
Отключение кэша аудио : Да
Использование указателей C2 : Нет

Коррекция смещения при чтении : 48
Способность читать области Lead-in и Lead-out : Нет
Заполнение пропущенных сэмплов тишиной : Да
Удаление блоков с тишиной в начале и конце : Нет
При вычислениях CRC использовались нулевые сэмплы : Да
Интерфейс : Встроенный Win32-интерфейс для Win NT/2000

Выходной формат : Пользовательский кодировщик
Выбранный битрейт : 128 kBit/s
Качество : Высокий
Добавление ID3-тега : Нет
Утилита сжатия : C:Program Files (x86)Exact Audio CopyFlacflac.exe
Дополнительные параметры : -V -8 -T "Date=%year%" -T "Genre=%genre%" %source%


TOC извлечённого CD

Трек | Старт | Длительность | Начальный сектор | Конечный сектор
––––––––––––––––––––––––––––––––––-
1 | 0:00.00 | 6:44.15 | 0 | 30314
2 | 6:44.15 | 2:47.60 | 30315 | 42899
3 | 9:32.00 | 5:46.10 | 42900 | 68859
4 | 15:18.10 | 6:07.58 | 68860 | 96442
5 | 21:25.68 | 4:57.42 | 96443 | 118759
6 | 26:23.35 | 6:46.05 | 118760 | 149214
7 | 33:09.40 | 3:39.35 | 149215 | 165674


Характеристики диапазона извлечения и сообщения об ошибках

Выбранный диапазон

Имя файла D:Music_Egor from PTZ_03_1Bob James 9 -14Bob James - Foxie (1983)Bob James - Foxie (1983).wav

Пиковый уровень 97.9 %
Скорость извлечения 3.5 X
Качество диапазона 100.0 %
CRC теста 892A4F46
CRC копии 892A4F46
Копирование… OK

Ошибок не произошло


AccurateRip: сводка

Трек 1 : извлечено точно (доверие 2) [2C747F4A] (AR v2)
Трек 2 : извлечено точно (доверие 2) [96355488] (AR v2)
Трек 3 : извлечено точно (доверие 2) [412EC384] (AR v2)
Трек 4 : извлечено точно (доверие 2) [D0C5E808] (AR v2)
Трек 5 : извлечено точно (доверие 2) [14A4FAAB] (AR v2)
Трек 6 : извлечено точно (доверие 2) [DBFE4551] (AR v2)
Трек 7 : извлечено точно (доверие 2) [708899B7] (AR v2)

Все треки извлечены точно

Конец отчёта

==== Контрольная сумма отчёта CDB62A13D1FDE7FE1C0699DE86A20C53E04707910DDFB1EDA7836AE6A3842BAE ====


––––––––––––––––––––––––––––––––––––––––
Analyzed: Bob James / Foxie
––––––––––––––––––––––––––––––––––––––––

DR Peak RMS Duration Track
––––––––––––––––––––––––––––––––––––––––
DR9 -0.18 dB -12.43 dB 6:44 01-Ludwig
DR11 -0.18 dB -14.35 dB 2:48 02-Calaban
DR9 -0.18 dB -12.62 dB 5:46 03-Fireball
DR10 -0.18 dB -12.54 dB 6:08 04-Zebra Man
DR12 -0.18 dB -15.52 dB 4:58 05-Miranda
DR10 -0.18 dB -12.56 dB 6:46 06-Marco Polo
DR11 -0.18 dB -14.21 dB 3:39 07-Tell Me Tell Me
––––––––––––––––––––––––––––––––––––––––

Number of tracks: 7
Official DR value: DR10

Samplerate: 44100 Hz
Channels: 2
Bits per sample: 16
Bitrate: 831 kbps
Codec: FLAC
================================================================================



Rip by Egor