Victor Feldman - Rio Nights (1987) {TBA Records}


Victor Feldman - Rio Nights (1987) {TBA Records}
EAC 1.1 | FLAC tracks level 8 | Cue+Log+M3U | Full Scans 300dpi | 249MB + 5% Recovery
Genre: Fusion, Post-Bop, Latin Jazz, Jazz-Funk

If one is to believe the dates given on this LP, three of the selections were recorded by keyboardist Victor Feldman just two days before his death. More likely is that those straight-ahead acoustic numbers with bassist John Patitucci and drummer Trevor Feldman were previously unreleased tunes from their 1983 date. The later tracks ("Don't Ask Oscar," "You Gave Me the Runaround" and "Basin Street Blues") are actually the high point of this album, for the other seven numbers (originally released as In My Pocket by the Coherent Sound label in 1988) are electronic, funky and rather lightweight.
Track List
01. In My Pocket 4:14
02. I Am Happy 4:18
03. Dont Ask Oscar 5:24
04. Skippin' 4:26
05. Welcome To The Party 4:10
06. You Gave Me The Runaround 5:18
07. Ruby Jubilation 3:23
08. Basin Street Blues 7:32
09. Rio 4:22

musicians
Victor Feldman - acousic piano, Fender Rhodes
Hubert Laws - flute
Harvey Mason - drums
John Patitucci - bass on tracks 3, 6, 8
Trevor Feldman - drums on tracks 3, 6, 8
Chuck Domanico - acoustic bass, electric bass
Fred Tackett - electric and acoustic guitars
Eddie Karam - marimba

Produced by Victor Feldman


Exact Audio Copy V1.1 from 23. June 2015

EAC extraction logfile from 6. February 2016, 17:43

Victor Feldman / Rio Nights

Used drive : HL-DT-STDVDRAM GH24NSB0 Adapter: 1 ID: 0

Read mode : Secure
Utilize accurate stream : Yes
Defeat audio cache : Yes
Make use of C2 pointers : No

Read offset correction : 6
Overread into Lead-In and Lead-Out : No
Fill up missing offset samples with silence : Yes
Delete leading and trailing silent blocks : No
Null samples used in CRC calculations : Yes
Used interface : Native Win32 interface for Win NT & 2000
Gap handling : Appended to previous track

Used output format : User Defined Encoder
Selected bitrate : 1024 kBit/s
Quality : High
Add ID3 tag : No
Command line compressor : C:Program Files (x86)Exact Audio CopyFLACFLAC.EXE
Additional command line options : -V -8 -T "ARTIST=%artist%" -T "TITLE=%title%" -T "ALBUM=%albumtitle%" -T "DATE=%year%" -T "TRACKNUMBER=%tracknr%" -T "GENRE=%genre%" -T "COMMENT=ripped by Musicgate for new-team.org" %source% -o %dest%


TOC of the extracted CD

Track | Start | Length | Start sector | End sector
––––––––––––––––––––––––––––-
1 | 0:00.00 | 4:16.00 | 0 | 19199
2 | 4:16.00 | 4:20.48 | 19200 | 38747
3 | 8:36.48 | 5:26.65 | 38748 | 63262
4 | 14:03.38 | 4:30.00 | 63263 | 83512
5 | 18:33.38 | 4:12.65 | 83513 | 102477
6 | 22:46.28 | 5:07.72 | 102478 | 125574
7 | 27:54.25 | 3:39.08 | 125575 | 142007
8 | 31:33.33 | 7:36.05 | 142008 | 176212
9 | 39:09.38 | 4:22.15 | 176213 | 195877


Track 1

Filename D:Musicgate for new-team.orgVictor Feldman - Rio Nights - 19871 - In My Pocket.wav

Pre-gap length 0:00:02.00

Peak level 100.0 %
Extraction speed 1.0 X
Track quality 100.0 %
Test CRC 79A79152
Copy CRC 79A79152
Accurately ripped (confidence 3) [141BD850] (AR v2)
Copy OK

Track 2

Filename D:Musicgate for new-team.orgVictor Feldman - Rio Nights - 19872 - I Am Happy.wav

Pre-gap length 0:00:01.42

Peak level 87.3 %
Extraction speed 1.2 X
Track quality 100.0 %
Test CRC 0A1CF5EF
Copy CRC 0A1CF5EF
Accurately ripped (confidence 3) [A164B580] (AR v2)
Copy OK

Track 3

Filename D:Musicgate for new-team.orgVictor Feldman - Rio Nights - 19873 - Don't Ask Oscar.wav

Pre-gap length 0:00:02.18

Peak level 100.0 %
Extraction speed 1.3 X
Track quality 100.0 %
Test CRC 77D5A2DE
Copy CRC 77D5A2DE
Accurately ripped (confidence 3) [2338D54A] (AR v2)
Copy OK

Track 4

Filename D:Musicgate for new-team.orgVictor Feldman - Rio Nights - 19874 - Skippin'.wav

Pre-gap length 0:00:02.33

Peak level 84.2 %
Extraction speed 1.4 X
Track quality 100.0 %
Test CRC 3CE831B9
Copy CRC 3CE831B9
Accurately ripped (confidence 3) [75AB377A] (AR v2)
Copy OK

Track 5

Filename D:Musicgate for new-team.orgVictor Feldman - Rio Nights - 19875 - Welcome to the Party.wav

Pre-gap length 0:00:03.10

Peak level 82.3 %
Extraction speed 1.5 X
Track quality 100.0 %
Test CRC 1572F50C
Copy CRC 1572F50C
Accurately ripped (confidence 3) [6185F9F7] (AR v2)
Copy OK

Track 6

Filename D:Musicgate for new-team.orgVictor Feldman - Rio Nights - 19876 - You Gave Me the Runaround.wav

Pre-gap length 0:00:02.70

Peak level 99.9 %
Extraction speed 1.6 X
Track quality 100.0 %
Test CRC EAC604B4
Copy CRC EAC604B4
Accurately ripped (confidence 3) [52CFCA52] (AR v2)
Copy OK

Track 7

Filename D:Musicgate for new-team.orgVictor Feldman - Rio Nights - 19877 - Ruby Jubilation.wav

Pre-gap length 0:00:02.20

Peak level 99.8 %
Extraction speed 1.4 X
Track quality 99.9 %
Test CRC 6F7CC268
Copy CRC 6F7CC268
Accurately ripped (confidence 3) [E181F9AA] (AR v2)
Copy OK

Track 8

Filename D:Musicgate for new-team.orgVictor Feldman - Rio Nights - 19878 - Basin Street Blues.wav

Pre-gap length 0:00:03.28

Peak level 100.0 %
Extraction speed 1.9 X
Track quality 100.0 %
Test CRC EC50489D
Copy CRC EC50489D
Accurately ripped (confidence 3) [78EE145F] (AR v2)
Copy OK

Track 9

Filename D:Musicgate for new-team.orgVictor Feldman - Rio Nights - 19879 - Rio.wav

Pre-gap length 0:00:03.20

Peak level 89.7 %
Extraction speed 1.9 X
Track quality 100.0 %
Test CRC 4F029AF8
Copy CRC 4F029AF8
Accurately ripped (confidence 3) [07DCAF69] (AR v2)
Copy OK


All tracks accurately ripped

No errors occurred

End of status report

==== Log checksum 79A9601DE36E9EC1509676C4930AF71AC7C54CDF1AB406FA3CF3CA04F50DB92B ====


––––––––––––––––––––––––––––––––––––––––
Analyzed: Victor Feldman / Rio Nights
––––––––––––––––––––––––––––––––––––––––

DR Peak RMS Duration Track
––––––––––––––––––––––––––––––––––––––––
DR14 0.00 dB -17.65 dB 4:16 01-In My Pocket
DR13 -1.17 dB -19.15 dB 4:21 02-I Am Happy
DR16 0.00 dB -18.94 dB 5:27 03-Don't Ask Oscar
DR14 -1.49 dB -17.79 dB 4:30 04-Skippin'
DR14 -1.69 dB -19.94 dB 4:13 05-Welcome to the Party
DR15 -0.01 dB -17.74 dB 5:08 06-You Gave Me the Runaround
DR15 -0.01 dB -18.76 dB 3:39 07-Ruby Jubilation
DR15 0.00 dB -19.35 dB 7:36 08-Basin Street Blues
DR15 -0.94 dB -18.62 dB 4:22 09-Rio
––––––––––––––––––––––––––––––––––––––––

Number of tracks: 9
Official DR value: DR15

Samplerate: 44100 Hz
Channels: 2
Bits per sample: 16
Bitrate: 765 kbps
Codec: FLAC
================================================================================



Rip by Musicgate