VA - Blues Slide Guitar (1996)


VA - Blues Slide Guitar (1996)
J.B. Hutto, Hound Dog Taylor, Elmore James, Earl Hooker, Smokin' Joe Kubek Band Ft Bnois King
George Thorogood, Hop Wilson, Lil' Ed & The Blues Imperials, Ron Levy's Wild Kingdom

EAC | FLAC | Image (Cue&Log) ~ 316 Mb (incl 5%) | Mp3 (CBR320) ~ 123 Mb (incl 5%) | Scans included
Genre: Electric Blues, Slide Guitar Blues | Label: EasyDisc/Rounder | # EDCD 9003 | Time: 00:46:15

~ This compilation provides an interesting survey of 9 blues slide guitar players. Collected from various independent record labels and recorded over the period 1960 through 1993, all of these tracks have been previously released albeit on hard to find albums and CDs. It is great to have these tracks collected in one place. Unfortunately, the entire CD is only 46 minutes long - I assume this is the result of licensing frees and limited budgets, but it certainly would have been great to have seventy to eighty minutes of music covering additional slide masters.

~ The lineup of artists may not be as widely known as some of their more famous blues brethren (see "comments" for a listing), but the music is of a high caliber throughout - both instrumentals and vocals. By offering 12 tracks from 9 artists, the producers have managed to produce a single CD that shows the breadth and depth of the blues slide guitar in terms of style and the artists range from those of historical interest to some newcomers (or at least newcomers in the 1990's).

~ This CD makes a nice introduction to blues slide guitar and for that reason is recommended.

~ Liner notes provide personnel information for each of the recordings. Sound quality varies from track to track as expected for this type of compilation, but is good to excellent throughout.

~ My only reason for 4 rather than 5 stars is the brevity of the disc.

Review by D.R.L., Amazon.com

Tracklist:

01. Smokin' Joe Kubek Band Ft Bnois King - Come By Here (03:22)
02. J.B. Hutto - Somebody Loan Me A Dime (03:03)
03. Hound Dog Taylor - Give Me Back My Wig (03:37)
04. George Thorogood & The Destroyers - Delaware Slide (07:54)
05. Ron Levy's Wild Kingdom With Ronnie Earl & Wayne Bennett - Knee Squeeze (04:10)
06. Hop Wilson - Dance To It (Chicken Stuff) (02:40)
07. Elmore James - It Hurts Me Too (03:20)
08. Lil' Ed & The Blues Imperials - Packin' Up (03:56)
09. Earl Hooker - Blue Guitar (02:47)
10. Hop Wilson - I Done Got Over (02:46)
11. J.B. Hutto - New Hawk Walk (03:46)
12. Smokin' Joe Kubek - Walk With You (04:50)


Exact Audio Copy V0.99 prebeta 4 from 23. January 2008

Отчёт EAC об извлечении, выполненном 13. сентября 2010, 20:21

Various / Blues Slide Guitar (ED CD 9003)

Дисковод: PIONEER DVD-RW DVR-110D Adapter: 1 ID: 1

Режим чтения : Достоверность
Использование точного потока : Да
Отключение кэша аудио : Да
Использование указателей C2 : Нет

Коррекция смещения при чтении : 48
Способность читать области Lead-in и Lead-out : Нет
Заполнение пропущенных сэмплов тишиной : Да
Удаление блоков с тишиной в начале и конце : Нет
При вычислениях CRC использовались нулевые сэмплы : Да
Интерфейс : Встроенный Win32-интерфейс для Win NT/2000

Выходной формат : Пользовательский кодировщик
Выбранный битрейт : 896 kBit/s
Качество : Высокий
Добавление ID3-тэга : Нет
Утилита сжатия : C:Program FilesExact Audio CopyFLACFLAC.EXE
Дополнительные параметры : -6 -V -T "ARTIST=%a" -T "TITLE=%t" -T "ALBUM=%g" -T "DATE=%y" -T "TRACKNUMBER=%n" -T "GENRE=%m" -T "COMMENT=%e" %s -o %d


TOC извлечённого CD

Трек | Старт | Длительность | Начальный сектор | Конечный сектор
––––––––––––––––––––––––––––––––––-
1 | 0:00.00 | 3:22.37 | 0 | 15186
2 | 3:22.37 | 3:03.40 | 15187 | 28951
3 | 6:26.02 | 3:37.08 | 28952 | 45234
4 | 10:03.10 | 7:54.32 | 45235 | 80816
5 | 17:57.42 | 4:10.13 | 80817 | 99579
6 | 22:07.55 | 2:40.27 | 99580 | 111606
7 | 24:48.07 | 3:20.03 | 111607 | 126609
8 | 28:08.10 | 3:56.00 | 126610 | 144309
9 | 32:04.10 | 2:47.32 | 144310 | 156866
10 | 34:51.42 | 2:46.55 | 156867 | 169371
11 | 37:38.22 | 3:46.73 | 169372 | 186394
12 | 41:25.20 | 4:50.10 | 186395 | 208154


Характеристики диапазона извлечения и сообщения об ошибках

Выбранный диапазон

Имя файла G:TorrentsVA - Blues Slide GuitarVarious - Blues Slide Guitar (ED CD 9003).wav

Пиковый уровень 100.0 %
Качество диапазона 99.9 %
CRC теста FB59688A
CRC копии FB59688A
Копирование… OK

Ошибок не произошло


AccurateRip: сводка

Трек 1 нет в базе данных
Трек 2 нет в базе данных
Трек 3 нет в базе данных
Трек 4 нет в базе данных
Трек 5 нет в базе данных
Трек 6 нет в базе данных
Трек 7 нет в базе данных
Трек 8 нет в базе данных
Трек 9 нет в базе данных
Трек 10 нет в базе данных
Трек 11 нет в базе данных
Трек 12 нет в базе данных

Ни одного трека нет в базе AccurateRip

Конец отчёта

[CUETools log; Date: 13.02.2016 16:50:05; Version: 2.1.4]
[CTDB TOCID: XCtJtFY8d.P4SDoOeMKSuOtu2II-] found.
Track | CTDB Status
1 | (1/1) Accurately ripped
2 | (1/1) Accurately ripped
3 | (1/1) Accurately ripped
4 | (1/1) Accurately ripped
5 | (1/1) Accurately ripped
6 | (1/1) Accurately ripped
7 | (1/1) Accurately ripped
8 | (1/1) Accurately ripped
9 | (1/1) Accurately ripped
10 | (1/1) Accurately ripped
11 | (1/1) Accurately ripped
12 | (1/1) Accurately ripped
[AccurateRip ID: 0014f39f-00c2cfc4-a30ad70c] found.
Track [ CRC | V2 ] Status
01 [7e4486b0|92a7889b] (0+0/2) No match
02 [d74638ce|5be2a9bc] (0+0/2) No match
03 [e6ca5dcb|dab7174b] (0+0/2) No match
04 [cb524eb2|464adea6] (0+0/2) No match
05 [2e1edfd8|e9feed9d] (0+0/2) No match
06 [111085d1|cd63f7a8] (0+0/2) No match
07 [4eb222f2|9b3edf8d] (0+0/2) No match
08 [7bc66bbb|bad43976] (0+0/2) No match
09 [b299839a|8cfa64f5] (0+0/2) No match
10 [457070fb|9a7da7d7] (0+0/2) No match
11 [16aaa2ab|c2d6a55e] (0+0/2) No match
12 [ad66a6ef|539dfdd8] (0+0/2) No match
Offsetted by 438:
01 [4d1e2c98] (2/2) Accurately ripped
02 [dfa4c23e] (2/2) Accurately ripped
03 [b27234d3] (2/2) Accurately ripped
04 [0088dec0] (2/2) Accurately ripped
05 [7e58f3e4] (2/2) Accurately ripped
06 [5150b0bf] (2/2) Accurately ripped
07 [826f583c] (2/2) Accurately ripped
08 [9deeb3af] (2/2) Accurately ripped
09 [5eeb5a1e] (2/2) Accurately ripped
10 [f3e0b81d] (2/2) Accurately ripped
11 [146db491] (2/2) Accurately ripped
12 [b01d6f3b] (2/2) Accurately ripped

Track Peak [ CRC32 ] [W/O NULL] [ LOG ]
– 100,0 [FB59688A] [006EFF5F] CRC32
01 90,8 [5741E801] [FE65C25E]
02 98,8 [BEF0CD65] [B70665ED]
03 98,8 [ED20EA95] [29BF3D29]
04 100,0 [B01B540F] [BCCC91F2]
05 100,0 [33039742] [62A151B6]
06 88,0 [AB959995] [4B572FE3]
07 86,2 [DDFE69F9] [B884D364]
08 94,4 [C4211B3D] [E40D4223]
09 95,0 [B527CDE7] [FA872212]
10 95,5 [4D70F11C] [F0F02108]
11 94,3 [B854126B] [B751C25D]
12 84,1 [68F54E6C] [C19E0EEF]

foobar2000 1.2 / Dynamic Range Meter 1.1.1
log date: 2016-02-10 20:55:23

––––––––––––––––––––––––––––––––––––––––
Statistics for: 07-It Hurts Me Too
Number of samples: 8821764
Duration: 3:20
––––––––––––––––––––––––––––––––––––––––

Left Right

Peak Value: -1.33 dB –- -1.29 dB
Avg RMS: -15.28 dB –- -16.82 dB
DR channel: 11.70 dB –- 12.93 dB
––––––––––––––––––––––––––––––––––––––––

Official DR Value: DR12

Samplerate: 44100 Hz
Channels: 2
Bits per sample: 16
Bitrate: 875 kbps
Codec: FLAC
================================================================================
––––––––––––––––––––––––––––––––––––––––
Analyzed: George Thorogood & The Destroyers / Blues Slide Guitar (ED CD 9003) (1)
Hop Wilson / Blues Slide Guitar (ED CD 9003) (2-3)
––––––––––––––––––––––––––––––––––––––––

DR Peak RMS Duration Track
––––––––––––––––––––––––––––––––––––––––
DR13 0.00 dB -14.47 dB 7:54 04-Delaware Slide
DR10 -1.10 dB -13.50 dB 2:40 06-Dance To It (Chicken Stuff)
DR10 -0.40 dB -12.54 dB 2:47 10-I Done Got Over
––––––––––––––––––––––––––––––––––––––––

Number of tracks: 3
Official DR value: DR11

Samplerate: 44100 Hz
Channels: 2
Bits per sample: 16
Bitrate: 875 kbps
Codec: FLAC
================================================================================

––––––––––––––––––––––––––––––––––––––––
Statistics for: 03-Give Me Back My Wig
Number of samples: 9574404
Duration: 3:37
––––––––––––––––––––––––––––––––––––––––

Left Right

Peak Value: -0.10 dB –- -0.10 dB
Avg RMS: -15.63 dB –- -15.50 dB
DR channel: 13.78 dB –- 13.64 dB
––––––––––––––––––––––––––––––––––––––––

Official DR Value: DR14

Samplerate: 44100 Hz
Channels: 2
Bits per sample: 16
Bitrate: 875 kbps
Codec: FLAC
================================================================================
––––––––––––––––––––––––––––––––––––––––
Analyzed: J.B. Hutto / Blues Slide Guitar (ED CD 9003)
––––––––––––––––––––––––––––––––––––––––

DR Peak RMS Duration Track
––––––––––––––––––––––––––––––––––––––––
DR12 -0.10 dB -13.42 dB 3:04 02-Somebody Loan Me A Dime
DR12 -0.51 dB -14.69 dB 3:47 11-New Hawk Walk
––––––––––––––––––––––––––––––––––––––––

Number of tracks: 2
Official DR value: DR12

Samplerate: 44100 Hz
Channels: 2
Bits per sample: 16
Bitrate: 875 kbps
Codec: FLAC
================================================================================

––––––––––––––––––––––––––––––––––––––––
Statistics for: 08-Packin' Up
Number of samples: 10407600
Duration: 3:56
––––––––––––––––––––––––––––––––––––––––

Left Right

Peak Value: -0.50 dB –- -0.50 dB
Avg RMS: -13.78 dB –- -13.12 dB
DR channel: 11.83 dB –- 11.27 dB
––––––––––––––––––––––––––––––––––––––––

Official DR Value: DR12

Samplerate: 44100 Hz
Channels: 2
Bits per sample: 16
Bitrate: 875 kbps
Codec: FLAC
================================================================================
––––––––––––––––––––––––––––––––––––––––
Statistics for: 05-Knee Squeeze
Number of samples: 11032644
Duration: 4:10
––––––––––––––––––––––––––––––––––––––––

Left Right

Peak Value: 0.00 dB –- -0.10 dB
Avg RMS: -16.23 dB –- -14.79 dB
DR channel: 14.64 dB –- 12.69 dB
––––––––––––––––––––––––––––––––––––––––

Official DR Value: DR14

Samplerate: 44100 Hz
Channels: 2
Bits per sample: 16
Bitrate: 875 kbps
Codec: FLAC
================================================================================
––––––––––––––––––––––––––––––––––––––––
Analyzed: Smokin' Joe Kubek Band Ft Bnois King / Blues Slide Guitar (ED CD 9003) (1)
Smokin' Joe Kubek / Blues Slide Guitar (ED CD 9003) (2)
––––––––––––––––––––––––––––––––––––––––

DR Peak RMS Duration Track
––––––––––––––––––––––––––––––––––––––––
DR11 -0.83 dB -13.79 dB 3:22 01-Come By Here
DR11 -1.50 dB -14.63 dB 4:50 12-Walk With You
––––––––––––––––––––––––––––––––––––––––

Number of tracks: 2
Official DR value: DR11

Samplerate: 44100 Hz
Channels: 2
Bits per sample: 16
Bitrate: 875 kbps
Codec: FLAC
================================================================================

foobar2000 1.2 / Dynamic Range Meter 1.1.1
log date: 2016-02-10 20:55:22

––––––––––––––––––––––––––––––––––––––––
Statistics for: 09-Blue Guitar
Number of samples: 7383516
Duration: 2:47
––––––––––––––––––––––––––––––––––––––––

Left Right

Peak Value: -0.44 dB –- -0.50 dB
Avg RMS: -14.34 dB –- -14.79 dB
DR channel: 11.69 dB –- 11.96 dB
––––––––––––––––––––––––––––––––––––––––

Official DR Value: DR12

Samplerate: 44100 Hz
Channels: 2
Bits per sample: 16
Bitrate: 875 kbps
Codec: FLAC
================================================================================



All thanks to original releaser - zhconst