Gilbert O’Sullivan - The Very Best Of... (1996)


Gilbert O’Sullivan - The Very Best Of… (1996)
Pop/Rock, Soft Rock, Singer/Songwriter | EAC Rip | FLAC, Img+CUE+LOG+Full Scans-600dpi (JPEG) | 63:10 Min | 448,71 Mb
Label: Star Records (EU) | Released: 1996

The Very Best Of Gilbert O'Sullivan on Star Records is an excellent scandinavian compilation of the hits by the Irish singer who was successful in the UK in the charts from 1970-1974.Sadly no big hit singles between 1975-1979 but "What's In A Kiss" was a hit in 1980 .Unfortunately it does not include the original version of "I Wish I Could Cry" (A version from 1995 is included here) but it does include an excellent selection of singles by Gilbert O'Sullivan including the brilliant single "I'll Believe It When I See It".It also includes other favourite singles like "Why Oh Why Oh Why","Nothing Rhymed",Alone Again Naturally","Clair","No Matter How I Try",Ooh-Wakka-Do,Wakka De,""Matrimony","Get Down","You Are You","Ooh Baby" and "What's In A Kiss". (Review by Stephen M. J. Passant)



Release of this CD: 1996 [CD Star Records (EU), Cat.# STAR 2000-2 / UPC: 7393068200028]
This Compilation ℗ & © 1996 SCANA
All tracks licensed from Grand Upright Music Ltd.

Tracklist:

01. Matrimony (03:15)
02. Ooh Wakka Do Wakka Day (02:48)
03. Claire (03:00)
04. Alone Again Naturally (03:37)
05. Get Down (02:40)
06. Nothing Rhymed (03:22)
07. You Are You (03:20)
08. No Matter How I Try (03:02)
09. We Will (03:53)
10. At The Very Mention Of Your Name (04:48)
11. Why, Oh Why, Oh Why (03:52)
12. Ooh Baby (03:45)
13. Can't Think Straight (Duet with Miss Peggy Lee) (04:03)
14. I Wish I Could Cry (03:34)
15. What's In A Kiss (02:37)
16. Lost A Friend (03:03)
17. I'll Believe It When I See It (05:19)
18. Dear Dream (03:12)

All songs written by Gilbert O'Sullivan

Exact Audio Copy V1.1 from 23. June 2015

EAC extraction logfile from 10. February 2016, 21:14

Gilbert O’Sullivan / The Very Best of Gilbert O'Sullivan

Used drive : ATAPI iHAS122 C Adapter: 1 ID: 0

Read mode : Secure
Utilize accurate stream : Yes
Defeat audio cache : Yes
Make use of C2 pointers : No

Read offset correction : 6
Overread into Lead-In and Lead-Out : No
Fill up missing offset samples with silence : Yes
Delete leading and trailing silent blocks : No
Null samples used in CRC calculations : Yes
Used interface : Native Win32 interface for Win NT & 2000

Used output format : Internal WAV Routines
Sample format : 44.100 Hz; 16 Bit; Stereo


TOC of the extracted CD

Track | Start | Length | Start sector | End sector
––––––––––––––––––––––––––––-
1 | 0:00.00 | 3:14.50 | 0 | 14599
2 | 3:14.50 | 2:47.55 | 14600 | 27179
3 | 6:02.30 | 3:00.02 | 27180 | 40681
4 | 9:02.32 | 3:37.15 | 40682 | 56971
5 | 12:39.47 | 2:40.28 | 56972 | 68999
6 | 15:20.00 | 3:22.10 | 69000 | 84159
7 | 18:42.10 | 3:19.50 | 84160 | 99134
8 | 22:01.60 | 3:01.65 | 99135 | 112774
9 | 25:03.50 | 3:53.37 | 112775 | 130286
10 | 28:57.12 | 4:48.03 | 130287 | 151889
11 | 33:45.15 | 3:51.42 | 151890 | 169256
12 | 37:36.57 | 3:44.48 | 169257 | 186104
13 | 41:21.30 | 4:03.30 | 186105 | 204359
14 | 45:24.60 | 3:34.35 | 204360 | 220444
15 | 48:59.20 | 2:37.10 | 220445 | 232229
16 | 51:36.30 | 3:03.20 | 232230 | 245974
17 | 54:39.50 | 5:19.25 | 245975 | 269924
18 | 59:59.00 | 3:11.40 | 269925 | 284289


Range status and errors

Selected range

Filename C:UsersArtursDesktopGilbert O’Sullivan - The Very Best of Gilbert O'Sullivan.wav

Peak level 99.9 %
Extraction speed 3.1 X
Range quality 99.9 %
Test CRC 80092574
Copy CRC 80092574
Copy OK

No errors occurred


AccurateRip summary

Track 1 accurately ripped (confidence 6) [AA9BC76B] (AR v2)
Track 2 accurately ripped (confidence 6) [26948B40] (AR v2)
Track 3 accurately ripped (confidence 6) [35C7DC31] (AR v2)
Track 4 accurately ripped (confidence 6) [F48702C1] (AR v2)
Track 5 accurately ripped (confidence 6) [5FD68B16] (AR v2)
Track 6 accurately ripped (confidence 6) [6C772A81] (AR v2)
Track 7 accurately ripped (confidence 6) [E6048B4C] (AR v2)
Track 8 accurately ripped (confidence 6) [7EFA83B2] (AR v2)
Track 9 accurately ripped (confidence 6) [C8D6D8AF] (AR v2)
Track 10 accurately ripped (confidence 6) [A07C5ACC] (AR v2)
Track 11 accurately ripped (confidence 6) [83DCF588] (AR v2)
Track 12 accurately ripped (confidence 6) [5B1635BD] (AR v2)
Track 13 accurately ripped (confidence 6) [5F3C75E0] (AR v2)
Track 14 accurately ripped (confidence 6) [3AB3218E] (AR v2)
Track 15 accurately ripped (confidence 6) [616D9BA8] (AR v2)
Track 16 accurately ripped (confidence 6) [54CFE7DE] (AR v2)
Track 17 accurately ripped (confidence 6) [FB02E86D] (AR v2)
Track 18 accurately ripped (confidence 6) [90248BD5] (AR v2)

All tracks accurately ripped

End of status report

–– CUETools DB Plugin V2.1.6

[CTDB TOCID: IMPSFpERExteM2TGg1HGZ.EkWZ8-] found
Submit result: already submitted
Track | CTDB Status
1 | (3/3) Accurately ripped
2 | (3/3) Accurately ripped
3 | (3/3) Accurately ripped
4 | (3/3) Accurately ripped
5 | (3/3) Accurately ripped
6 | (3/3) Accurately ripped
7 | (3/3) Accurately ripped
8 | (3/3) Accurately ripped
9 | (3/3) Accurately ripped
10 | (3/3) Accurately ripped
11 | (3/3) Accurately ripped
12 | (3/3) Accurately ripped
13 | (3/3) Accurately ripped
14 | (3/3) Accurately ripped
15 | (3/3) Accurately ripped
16 | (3/3) Accurately ripped
17 | (3/3) Accurately ripped
18 | (3/3) Accurately ripped


==== Log checksum 51AFBACF8BB91E6EC6C1D2D9F2441F54E034C9390DD039422039B4A271CB3EA0 ====

All thanks to London