Āõīä ā ńāīé ąźźąóķņ

Čėč āīéäčņå ÷åšåē ńīö. ńåņč

Dion & The Belmonts - The Very Best of Dion & The Belmonts [2CD] (2012)


Dion & The Belmonts - The Very Best of Dion & The Belmonts [2CD] (2012)
Pop/Rock, Rock 'N' Roll, Doo Wop | EAC Rip | FLAC, Img+CUE+LOG+Full Scans-600dpi (JPEG) | 50:15+48:12 Min | 536,21 Mb
Label: One Day Music (EU) | Released: 2012, April, 3

Featuring 40 original recordings on 2CDs, this compilation includes the very best of Dion & The Belmonts with classic tracks such as 'The Wanderer',' Run Around Sue', 'Dream Lover', 'A Teenager In Love' and more!




Release of this CD Set: 2012, April, 3 [CD One Day Music (EU), Cat.# DAY2CD146 / UPC: 5060255181461]
Note: Original recording remastered
This Compilation Ć¢Ā„Ā— & ƂĀ© 2012 One Day Music, a division of Not Now Music Ltd.
Made in the EU

Tracklist:

Disc 1

01. The Wanderer (Maresca) Rec.1961
02. Runaround Sue (Di Mocci/Maresca) Rec.1961
03. The Majestic (Jones/Young) Rec.1961
04. Runaway Girl (Baer/Schwartz/Greenberg) Rec.I961
05. Dream Lover (Darin) Rec.1961
06. Somebody Nobody Wants (Goehring) Rec.1960
07. Lonely Teenager (Feraci/Pippa/Dipaola) Rec.1960
08. The Kissin' Game (Phillips/Vance) Rec.1960
09. Heaven Help Me (Lynn/Medley) Rec.1961
10. Havin' Fun (Pomus/Shuman) Res,1960
11. North East End Of The Corner (Blackwell) Rec.1961
12. Little Miss Blue (Isle/lsle/Marlowe) Rec.1960
13. Where Or When (Rodgers/Hart) Rec.1960
14. That's My Desire (Kresa/Loveday) Rec.1960
15. Fly Me To The Moon (Howard) Rec.1960
16. Just You (Weinbrenner) Rec.1958
17. When You Wish Upon A Star (Harline/Washington) Rec.1960
18. You Better Not Do That (Collins) Rec.1959
19. No One Knows (Maresca/Hecbt) Rec.1959
20. I Can't Go On (Rosalie) (Domino/Bartholomew) Rec.1958

Disc 2

01. A Teenager In Love (Pomus/Shuman) Rec.1959
02. I Wonder Why (Anderson/Weeks) Rec.1958
03. I've Cried Before (Pomus/Sbumas) Rec.1959
04. In The Still Of The Night (Warren) Rec.1960
05. Teen Angel (Singer/Patrick/DiMucci) Rec.1958
06. It's Only A Paper Moon (Rose/Arlen/Harburg) Rec.1960
07. Swinging On A Star (Van Heusen/Burke) Rec.1960
08. A Funny Feeling (Barker/Belgin) Rec.1960
09. September Song (Weill/Anderson) Rec.1960
10. All The Things You Are (Hammerstein/Kern) Ree.1960
11. Don't Pity Me (Stallman/Jacobson) Rec.1958
12. Every Little Thing (Antbony/lebowsky) Rec.1959
13. I'm Through With Love (Livingston/Malneck/Kahn) Rec.1960
14. I Got The Blues (Maresca) Rec.1959
15. My Day (Jacobson/Stillman) Rec.1960
16. When The Red, Red Robin Comes Bobbin' Along (Woods) Rec.1960
17. Wonderful Girl (Parris) Rec.1958
18. The Chosen Few (Mirchim) ƐĀ’ƐĀµĆ‘Ā.1957
19. Out In Colorado (Sigler/Goid) Rec.1957
20. A Lover's Prayer (Maresca) Rec.1959

Exact Audio Copy V1.1 from 23. June 2015

EAC extraction logfile from 14. February 2016, 8:11

Dion & The Belmonts / The Very Best of Dion & The Belmonts (CD 1)

Used drive : ATAPI iHAS122 C Adapter: 1 ID: 0

Read mode : Secure
Utilize accurate stream : Yes
Defeat audio cache : Yes
Make use of C2 pointers : No

Read offset correction : 6
Overread into Lead-In and Lead-Out : No
Fill up missing offset samples with silence : Yes
Delete leading and trailing silent blocks : No
Null samples used in CRC calculations : Yes
Used interface : Native Win32 interface for Win NT & 2000

Used output format : Internal WAV Routines
Sample format : 44.100 Hz; 16 Bit; Stereo


TOC of the extracted CD

Track | Start | Length | Start sector | End sector
ā€“ā€“ā€“ā€“ā€“ā€“ā€“ā€“ā€“ā€“ā€“ā€“ā€“ā€“ā€“ā€“ā€“ā€“ā€“ā€“ā€“ā€“ā€“ā€“ā€“ā€“ā€“ā€“-
1 | 0:00.00 | 2:48.64 | 0 | 12663
2 | 2:48.64 | 2:40.62 | 12664 | 24725
3 | 5:29.51 | 2:40.39 | 24726 | 36764
4 | 8:10.15 | 2:27.51 | 36765 | 47840
5 | 10:37.66 | 2:18.10 | 47841 | 58200
6 | 12:56.01 | 2:44.74 | 58201 | 70574
7 | 15:41.00 | 2:17.32 | 70575 | 80881
8 | 17:58.32 | 2:58.01 | 80882 | 94232
9 | 20:56.33 | 2:01.39 | 94233 | 103346
10 | 22:57.72 | 2:21.46 | 103347 | 113967
11 | 25:19.43 | 2:34.01 | 113968 | 125518
12 | 27:53.44 | 2:20.09 | 125519 | 136027
13 | 30:13.53 | 2:39.21 | 136028 | 147973
14 | 32:52.74 | 2:34.71 | 147974 | 159594
15 | 35:27.70 | 2:40.57 | 159595 | 171651
16 | 38:08.52 | 2:31.49 | 171652 | 183025
17 | 40:40.26 | 2:27.19 | 183026 | 194069
18 | 43:07.45 | 2:15.43 | 194070 | 204237
19 | 45:23.13 | 2:37.07 | 204238 | 216019
20 | 48:00.20 | 2:15.36 | 216020 | 226180


Range status and errors

Selected range

Filename C:UsersArtursDesktopDion & The Belmonts - The Very Best of Dion & The Belmonts (CD 1).wav

Peak level 98.8 %
Extraction speed 8.6 X
Range quality 100.0 %
Test CRC 97792027
Copy CRC 97792027
Copy OK

No errors occurred


AccurateRip summary

Track 1 accurately ripped (confidence 1) [588C898F] (AR v2)
Track 2 accurately ripped (confidence 1) [ED4F2A05] (AR v2)
Track 3 accurately ripped (confidence 1) [9A9FF14D] (AR v2)
Track 4 accurately ripped (confidence 1) [C2BD19C2] (AR v2)
Track 5 accurately ripped (confidence 1) [766C160C] (AR v2)
Track 6 accurately ripped (confidence 1) [2DBDB79A] (AR v2)
Track 7 accurately ripped (confidence 1) [8F46BDD0] (AR v2)
Track 8 accurately ripped (confidence 1) [81B19C23] (AR v2)
Track 9 accurately ripped (confidence 1) [97F61C34] (AR v2)
Track 10 accurately ripped (confidence 1) [FDF3D85D] (AR v2)
Track 11 accurately ripped (confidence 1) [CE46294F] (AR v2)
Track 12 accurately ripped (confidence 1) [A9885905] (AR v2)
Track 13 accurately ripped (confidence 1) [B47F6F3A] (AR v2)
Track 14 accurately ripped (confidence 1) [EEE63F8A] (AR v2)
Track 15 accurately ripped (confidence 1) [EEF1B19B] (AR v2)
Track 16 accurately ripped (confidence 1) [42635C76] (AR v2)
Track 17 accurately ripped (confidence 1) [54CC51B1] (AR v2)
Track 18 accurately ripped (confidence 1) [F27F91EB] (AR v2)
Track 19 accurately ripped (confidence 1) [D5F539C2] (AR v2)
Track 20 accurately ripped (confidence 1) [575BBF01] (AR v2)

All tracks accurately ripped

End of status report

ā€“ā€“ CUETools DB Plugin V2.1.6

[CTDB TOCID: yp_JSVuYd2G.QBx_6mcScaXU5AY-] found
Submit result: yp_JSVuYd2G.QBx_6mcScaXU5AY- has been confirmed
Track | CTDB Status
1 | (4/4) Accurately ripped
2 | (4/4) Accurately ripped
3 | (4/4) Accurately ripped
4 | (4/4) Accurately ripped
5 | (4/4) Accurately ripped
6 | (4/4) Accurately ripped
7 | (4/4) Accurately ripped
8 | (4/4) Accurately ripped
9 | (4/4) Accurately ripped
10 | (4/4) Accurately ripped
11 | (4/4) Accurately ripped
12 | (4/4) Accurately ripped
13 | (4/4) Accurately ripped
14 | (4/4) Accurately ripped
15 | (4/4) Accurately ripped
16 | (4/4) Accurately ripped
17 | (4/4) Accurately ripped
18 | (4/4) Accurately ripped
19 | (4/4) Accurately ripped
20 | (4/4) Accurately ripped


==== Log checksum 2C0778144B5C0D0F6F32167487EADA21FBE196DC2EE472347F1CEFBCC46CEED8 ====

Exact Audio Copy V1.1 from 23. June 2015

EAC extraction logfile from 14. February 2016, 8:37

Dion & The Belmonts / The Very Best of Dion & The Belmonts (CD 2)

Used drive : ATAPI iHAS122 C Adapter: 1 ID: 0

Read mode : Secure
Utilize accurate stream : Yes
Defeat audio cache : Yes
Make use of C2 pointers : No

Read offset correction : 6
Overread into Lead-In and Lead-Out : No
Fill up missing offset samples with silence : Yes
Delete leading and trailing silent blocks : No
Null samples used in CRC calculations : Yes
Used interface : Native Win32 interface for Win NT & 2000

Used output format : Internal WAV Routines
Sample format : 44.100 Hz; 16 Bit; Stereo


TOC of the extracted CD

Track | Start | Length | Start sector | End sector
ā€“ā€“ā€“ā€“ā€“ā€“ā€“ā€“ā€“ā€“ā€“ā€“ā€“ā€“ā€“ā€“ā€“ā€“ā€“ā€“ā€“ā€“ā€“ā€“ā€“ā€“ā€“ā€“-
1 | 0:00.00 | 2:36.74 | 0 | 11773
2 | 2:36.74 | 2:18.45 | 11774 | 22168
3 | 4:55.44 | 2:48.23 | 22169 | 34791
4 | 7:43.67 | 2:41.44 | 34792 | 46910
5 | 10:25.36 | 2:13.42 | 46911 | 56927
6 | 12:39.03 | 1:55.38 | 56928 | 65590
7 | 14:34.41 | 2:25.04 | 65591 | 76469
8 | 16:59.45 | 2:14.63 | 76470 | 86582
9 | 19:14.33 | 2:46.03 | 86583 | 99035
10 | 22:00.36 | 2:15.70 | 99036 | 109230
11 | 24:16.31 | 2:38.30 | 109231 | 121110
12 | 26:54.61 | 2:02.35 | 121111 | 130295
13 | 28:57.21 | 2:16.06 | 130296 | 140501
14 | 31:13.27 | 2:46.37 | 140502 | 152988
15 | 33:59.64 | 2:14.01 | 152989 | 163039
16 | 36:13.65 | 1:59.71 | 163040 | 172035
17 | 38:13.61 | 2:38.67 | 172036 | 183952
18 | 40:52.53 | 2:45.69 | 183953 | 196396
19 | 43:38.47 | 2:07.59 | 196397 | 205980
20 | 45:46.31 | 2:26.32 | 205981 | 216962


Range status and errors

Selected range

Filename C:UsersArtursDesktopDion & The Belmonts - The Very Best of Dion & The Belmonts (CD 2).wav

Peak level 98.8 %
Extraction speed 8.6 X
Range quality 100.0 %
Test CRC 5D42C0FC
Copy CRC 5D42C0FC
Copy OK

No errors occurred


AccurateRip summary

Track 1 accurately ripped (confidence 1) [BC59856C] (AR v2)
Track 2 accurately ripped (confidence 1) [6474BB7F] (AR v2)
Track 3 accurately ripped (confidence 1) [594822DB] (AR v2)
Track 4 accurately ripped (confidence 1) [0BB6F270] (AR v2)
Track 5 accurately ripped (confidence 1) [5AC0ED30] (AR v2)
Track 6 accurately ripped (confidence 1) [6861128F] (AR v2)
Track 7 accurately ripped (confidence 1) [4EA841C3] (AR v2)
Track 8 accurately ripped (confidence 1) [97DDEB30] (AR v2)
Track 9 accurately ripped (confidence 1) [44D8E90B] (AR v2)
Track 10 accurately ripped (confidence 1) [650C69C4] (AR v2)
Track 11 accurately ripped (confidence 1) [909D4ED1] (AR v2)
Track 12 accurately ripped (confidence 1) [021267E9] (AR v2)
Track 13 accurately ripped (confidence 1) [E598221F] (AR v2)
Track 14 accurately ripped (confidence 1) [C773B357] (AR v2)
Track 15 accurately ripped (confidence 1) [932B554F] (AR v2)
Track 16 accurately ripped (confidence 1) [794AEA2F] (AR v2)
Track 17 accurately ripped (confidence 1) [D511AFCB] (AR v2)
Track 18 accurately ripped (confidence 1) [766BA000] (AR v2)
Track 19 accurately ripped (confidence 1) [37C10086] (AR v2)
Track 20 accurately ripped (confidence 1) [909C9777] (AR v2)

All tracks accurately ripped

End of status report

ā€“ā€“ CUETools DB Plugin V2.1.6

[CTDB TOCID: am.MlQ8aoybW76w8AkWcOa9mmlA-] found
Submit result: am.MlQ8aoybW76w8AkWcOa9mmlA- has been confirmed
Track | CTDB Status
1 | (4/4) Accurately ripped
2 | (4/4) Accurately ripped
3 | (4/4) Accurately ripped
4 | (4/4) Accurately ripped
5 | (4/4) Accurately ripped
6 | (4/4) Accurately ripped
7 | (4/4) Accurately ripped
8 | (4/4) Accurately ripped
9 | (4/4) Accurately ripped
10 | (4/4) Accurately ripped
11 | (4/4) Accurately ripped
12 | (4/4) Accurately ripped
13 | (4/4) Accurately ripped
14 | (4/4) Accurately ripped
15 | (4/4) Accurately ripped
16 | (4/4) Accurately ripped
17 | (4/4) Accurately ripped
18 | (4/4) Accurately ripped
19 | (4/4) Accurately ripped
20 | (4/4) Accurately ripped


==== Log checksum EAB165D25BC7971F714D4C05197D744721C7FE6FAA3C3C736FD0B78B26B29B7D ====

foobar2000 1.3.9 / Dynamic Range Meter 1.1.1
log date: 2016-02-14 14:17:37

ā€“ā€“ā€“ā€“ā€“ā€“ā€“ā€“ā€“ā€“ā€“ā€“ā€“ā€“ā€“ā€“ā€“ā€“ā€“ā€“ā€“ā€“ā€“ā€“ā€“ā€“ā€“ā€“ā€“ā€“ā€“ā€“ā€“ā€“ā€“ā€“ā€“ā€“ā€“ā€“
Analyzed: Dion & The Belmonts / The Very Best of Dion & The Belmonts (CD 1)
ā€“ā€“ā€“ā€“ā€“ā€“ā€“ā€“ā€“ā€“ā€“ā€“ā€“ā€“ā€“ā€“ā€“ā€“ā€“ā€“ā€“ā€“ā€“ā€“ā€“ā€“ā€“ā€“ā€“ā€“ā€“ā€“ā€“ā€“ā€“ā€“ā€“ā€“ā€“ā€“

DR Peak RMS Duration Track
ā€“ā€“ā€“ā€“ā€“ā€“ā€“ā€“ā€“ā€“ā€“ā€“ā€“ā€“ā€“ā€“ā€“ā€“ā€“ā€“ā€“ā€“ā€“ā€“ā€“ā€“ā€“ā€“ā€“ā€“ā€“ā€“ā€“ā€“ā€“ā€“ā€“ā€“ā€“ā€“
DR9 -0.14 dB -11.00 dB 2:49 01-The Wanderer
DR10 -0.10 dB -12.10 dB 2:41 02-Runaround Sue
DR10 -0.10 dB -11.67 dB 2:41 03-The Majestic
DR8 -0.14 dB -9.47 dB 2:28 04-Runaway Girl
DR7 -0.14 dB -8.34 dB 2:18 05-Dream Lover
DR8 -0.14 dB -9.31 dB 2:45 06-Somebody Nobody Wants
DR8 -0.15 dB -9.92 dB 2:17 07-Lonely Teenager
DR9 -0.10 dB -10.69 dB 2:58 08-The Kissin' Game
DR7 -0.14 dB -9.26 dB 2:02 09-Heaven Help Me
DR7 -0.13 dB -8.84 dB 2:22 10-Havin' Fun
DR8 -0.12 dB -10.14 dB 2:34 11-North East End of the Corner
DR7 -0.13 dB -8.12 dB 2:20 12-Little Miss Blue
DR7 -0.14 dB -8.83 dB 2:39 13-Where or When
DR7 -0.14 dB -8.72 dB 2:35 14-That's My Desire
DR8 -0.14 dB -9.83 dB 2:41 15-Fly Me to the Moon
DR8 -0.12 dB -9.86 dB 2:32 16-Just You
DR8 -0.14 dB -9.26 dB 2:27 17-When You Wish Upon a Star
DR9 -0.12 dB -10.79 dB 2:16 18-You Better Not Do That
DR7 -0.15 dB -8.79 dB 2:37 19-No One Knows
DR8 -0.15 dB -9.24 dB 2:15 20-I Can't Go On
ā€“ā€“ā€“ā€“ā€“ā€“ā€“ā€“ā€“ā€“ā€“ā€“ā€“ā€“ā€“ā€“ā€“ā€“ā€“ā€“ā€“ā€“ā€“ā€“ā€“ā€“ā€“ā€“ā€“ā€“ā€“ā€“ā€“ā€“ā€“ā€“ā€“ā€“ā€“ā€“

Number of tracks: 20
Official DR value: DR8

Samplerate: 44100 Hz
Channels: 2
Bits per sample: 16
Bitrate: 747 kbps
Codec: FLAC
================================================================================

foobar2000 1.3.9 / Dynamic Range Meter 1.1.1
log date: 2016-02-14 14:18:15

ā€“ā€“ā€“ā€“ā€“ā€“ā€“ā€“ā€“ā€“ā€“ā€“ā€“ā€“ā€“ā€“ā€“ā€“ā€“ā€“ā€“ā€“ā€“ā€“ā€“ā€“ā€“ā€“ā€“ā€“ā€“ā€“ā€“ā€“ā€“ā€“ā€“ā€“ā€“ā€“
Analyzed: Dion & The Belmonts / The Very Best of Dion & The Belmonts (CD 2)
ā€“ā€“ā€“ā€“ā€“ā€“ā€“ā€“ā€“ā€“ā€“ā€“ā€“ā€“ā€“ā€“ā€“ā€“ā€“ā€“ā€“ā€“ā€“ā€“ā€“ā€“ā€“ā€“ā€“ā€“ā€“ā€“ā€“ā€“ā€“ā€“ā€“ā€“ā€“ā€“

DR Peak RMS Duration Track
ā€“ā€“ā€“ā€“ā€“ā€“ā€“ā€“ā€“ā€“ā€“ā€“ā€“ā€“ā€“ā€“ā€“ā€“ā€“ā€“ā€“ā€“ā€“ā€“ā€“ā€“ā€“ā€“ā€“ā€“ā€“ā€“ā€“ā€“ā€“ā€“ā€“ā€“ā€“ā€“
DR8 -0.12 dB -10.61 dB 2:37 01-A Teenager In Love
DR7 -0.11 dB -8.27 dB 2:19 02-I Wonder Why
DR9 -0.14 dB -10.76 dB 2:48 03-I've Cried Before
DR7 -0.14 dB -9.47 dB 2:42 04-In The Still Of The Night
DR7 -0.12 dB -9.29 dB 2:14 05-Teen Angel
DR8 -0.15 dB -9.65 dB 1:56 06-It's Only A Paper Moon
DR9 -0.14 dB -10.27 dB 2:25 07-Swinging On A Star
DR8 -0.13 dB -9.57 dB 2:15 08-A Funny Feeling
DR8 -0.14 dB -10.84 dB 2:46 09-September Song
DR7 -0.14 dB -8.99 dB 2:16 10-All The Things You Are
DR8 -0.14 dB -9.76 dB 2:38 11-Don't Pity Me
DR9 -0.14 dB -10.66 dB 2:02 12-Every Little Thing
DR8 -0.14 dB -9.93 dB 2:16 13-I'm Throught Wint Love
DR8 -0.10 dB -9.79 dB 2:46 14-I Got The Blues
DR10 -0.15 dB -12.12 dB 2:14 15-My Day
DR9 -0.14 dB -10.41 dB 2:00 16-When The Red, Red Robin Comes Bobbing' Along
DR8 -0.14 dB -10.20 dB 2:39 17-Wonderful Girl
DR7 -0.15 dB -9.97 dB 2:46 18-The Chosen Few
DR8 -0.14 dB -9.78 dB 2:08 19-Out In Colorado
DR11 -0.14 dB -13.00 dB 2:26 20-A Lover's Prayer
ā€“ā€“ā€“ā€“ā€“ā€“ā€“ā€“ā€“ā€“ā€“ā€“ā€“ā€“ā€“ā€“ā€“ā€“ā€“ā€“ā€“ā€“ā€“ā€“ā€“ā€“ā€“ā€“ā€“ā€“ā€“ā€“ā€“ā€“ā€“ā€“ā€“ā€“ā€“ā€“

Number of tracks: 20
Official DR value: DR8

Samplerate: 44100 Hz
Channels: 2
Bits per sample: 16
Bitrate: 650 kbps
Codec: FLAC
================================================================================

All thanks to London