Âõîä â ñâîé àêêàóíò

Èëè âîéäèòå ÷åðåç ñîö. ñåòè

Def Leppard - Pyromania (1983) [2009, Deluxe Edition]


Def Leppard - Pyromania (1983) [2009, Deluxe Edition]
Rock, Hard Rock, Pop-Metal | EAC Rip | FLAC, Img+CUE+LOG+Full Scans-600dpi (JPEG) | 45:18+70:44 Min | 950,24 Mb
Label: Mercury Records Ltd. (EU) | Released: 2009, June, 8

Pyromania is the third studio album by English rock band Def Leppard, released on 20 January 1983. It is the first album to feature guitarist Phil Collen and was produced by Robert John "Mutt" Lange. The album was a huge success, charting at #2 on the Billboard 200 and #18 on the UK Albums Chart and selling over ten million copies in the US, and thus being certified diamond by the RIAA. While Def Leppard had obviously wanted to write big-sounding anthems on their previous records, Pyromania was where the band's vision coalesced and gelled into something more. More than ever before, the band's songs on Pyromania are driven by catchy, shiny melodic hooks instead of heavy guitar riffs, although the latter do pop up once in a while. But it wasn't just this newly intensified focus on melody and consistent songwriting (and heavy MTV exposure) that made Pyromania a massive success - and the catalyst for the '80s pop-metal movement. Robert John "Mutt" Lange's buffed-to-a-sheen production - polished drum and guitar sounds, multi-tracked layers of vocal harmonies, a general sanding of any and all musical rough edges, and a perfectionistic attention to detail - set the style for much of the melodic hard rock that followed. It wasn't a raw or spontaneous sound, but the performances were still energetic and committed. Leppard's quest for huge, transcendent hard rock perfection on Pyromania was surprisingly successful; their reach never exceeded their grasp, which makes the album an enduring (and massively influential) classic.




Release of the album: 1983, January, 20 [LP Vertigo, Cat.# VERS 2, 6359 119, UK]
Release of this CD Set: 2009, June, 8 [CD Mercury Records Ltd. (EU), Cat.# 060075319168(2) / UPC: 600753191682]
℗ 2009 Mercury Records Ltd. © 2009 Bludgeon Riffola.
The copyright in these sound recordings is owned by Mercury Records Ltd., A Universal Music Company
Made in the EU

Bass – Rick Savage
Compilation Producer – Joe Elliott, Steve Hammonds
Drums – Rick Allen
Guitar – Phil Collen, Steve “Steamin'”Clark
Lead Vocals – Joe Elliott
Liner Notes – David Fricke
Producer – Joe Elliott (tracks: 2-1 to 2-15), Ronan McHugh (tracks: 2-1 to 2-15)
Producer, Mixed By – Robert John "Mutt" Lange (tracks: 1-1 to 1-10)
Remastered By – Bob Ludwig


Tracklist:

Disc 1 - Pyromania: The Original Album Remastered

01. Rock! Rock! (Till You Drop) 03:56
02. Photograph 04:09
03. Stagefright 03:45
04. Too Late For Love 04:27
05. Die Hard The Hunter 06:17
06. Foolin' 04:35
07. Rock Of Ages 04:08
08. Comin' Under Fire 04:15
09. Action! Not Words 03:49
10. Billy's Got A Gun 05:58

Disc 2 - Live - L.A. Forum 1983

01. Rock! Rock! (Till You Drop) 04:16
02. Rock Brigade 03:25
03. High 'N' Dry (Saturday Night) 03:22
04. Another Hit And Run 06:14
05. Billy's Got A Gun 04:43
06. Mirror Mirror (Look Into My Eyes) 04:24
07. Foolin' 04:59
08. Photograph 04:03
09. Rock Of Ages 04:53
10. Bringin' On The Heartbreak 04:06
11. Switch 625 03:23
12. Let It Go 05:56
13. Wasted 05:55
14. Stagefright 04:55
15. Travelin' Band 06:09

Exact Audio Copy V1.1 from 23. June 2015

EAC extraction logfile from 13. February 2016, 20:37

Def Leppard / Pyromania

Used drive : ATAPI iHAS122 C Adapter: 1 ID: 0

Read mode : Secure
Utilize accurate stream : Yes
Defeat audio cache : Yes
Make use of C2 pointers : No

Read offset correction : 6
Overread into Lead-In and Lead-Out : No
Fill up missing offset samples with silence : Yes
Delete leading and trailing silent blocks : No
Null samples used in CRC calculations : Yes
Used interface : Native Win32 interface for Win NT & 2000

Used output format : Internal WAV Routines
Sample format : 44.100 Hz; 16 Bit; Stereo


TOC of the extracted CD

Track | Start | Length | Start sector | End sector
––––––––––––––––––––––––––––-
1 | 0:00.00 | 3:56.07 | 0 | 17706
2 | 3:56.07 | 4:08.42 | 17707 | 36348
3 | 8:04.49 | 3:45.24 | 36349 | 53247
4 | 11:49.73 | 4:27.32 | 53248 | 73304
5 | 16:17.30 | 6:16.46 | 73305 | 101550
6 | 22:34.01 | 4:34.49 | 101551 | 122149
7 | 27:08.50 | 4:08.31 | 122150 | 140780
8 | 31:17.06 | 4:14.73 | 140781 | 159903
9 | 35:32.04 | 3:49.26 | 159904 | 177104
10 | 39:21.30 | 5:57.44 | 177105 | 203923


Range status and errors

Selected range

Filename C:UsersArtursDesktopDef Leppard - Pyromania.wav

Peak level 100.0 %
Extraction speed 8.1 X
Range quality 100.0 %
Test CRC C49A5C80
Copy CRC C49A5C80
Copy OK

No errors occurred


AccurateRip summary

Track 1 accurately ripped (confidence 77) [CD8AC301] (AR v2)
Track 2 accurately ripped (confidence 78) [1E130B43] (AR v2)
Track 3 accurately ripped (confidence 78) [4DF83147] (AR v2)
Track 4 accurately ripped (confidence 78) [52646E59] (AR v2)
Track 5 accurately ripped (confidence 78) [FC937D1F] (AR v2)
Track 6 accurately ripped (confidence 77) [529FE3D1] (AR v2)
Track 7 accurately ripped (confidence 76) [6A3F9156] (AR v2)
Track 8 accurately ripped (confidence 78) [765F9C5C] (AR v2)
Track 9 accurately ripped (confidence 78) [A073EDCA] (AR v2)
Track 10 accurately ripped (confidence 77) [850169DC] (AR v2)

All tracks accurately ripped

End of status report

–– CUETools DB Plugin V2.1.6

[CTDB TOCID: h6yy6nkx9RE8FkYeP8SrSzDrnZ8-] found
Submit result: already submitted
Track | CTDB Status
1 | (79/79) Accurately ripped
2 | (79/79) Accurately ripped
3 | (79/79) Accurately ripped
4 | (78/79) Accurately ripped
5 | (79/79) Accurately ripped
6 | (79/79) Accurately ripped
7 | (79/79) Accurately ripped
8 | (79/79) Accurately ripped
9 | (79/79) Accurately ripped
10 | (78/79) Accurately ripped


==== Log checksum 475310A55FA88A2D00064B2E269698873AF4F8682E108B8B3768760A913F857B ====

Exact Audio Copy V1.1 from 23. June 2015

EAC extraction logfile from 13. February 2016, 21:17

Def Leppard / Pyromania (Live)

Used drive : ATAPI iHAS122 C Adapter: 1 ID: 0

Read mode : Secure
Utilize accurate stream : Yes
Defeat audio cache : Yes
Make use of C2 pointers : No

Read offset correction : 6
Overread into Lead-In and Lead-Out : No
Fill up missing offset samples with silence : Yes
Delete leading and trailing silent blocks : No
Null samples used in CRC calculations : Yes
Used interface : Native Win32 interface for Win NT & 2000

Used output format : Internal WAV Routines
Sample format : 44.100 Hz; 16 Bit; Stereo


TOC of the extracted CD

Track | Start | Length | Start sector | End sector
––––––––––––––––––––––––––––-
1 | 0:00.00 | 4:16.25 | 0 | 19224
2 | 4:16.25 | 3:25.31 | 19225 | 34630
3 | 7:41.56 | 3:22.28 | 34631 | 49808
4 | 11:04.09 | 6:13.42 | 49809 | 77825
5 | 17:17.51 | 4:43.23 | 77826 | 99073
6 | 22:00.74 | 4:24.13 | 99074 | 118886
7 | 26:25.12 | 4:58.58 | 118887 | 141294
8 | 31:23.70 | 4:03.12 | 141295 | 159531
9 | 35:27.07 | 4:53.20 | 159532 | 181526
10 | 40:20.27 | 4:05.62 | 181527 | 199963
11 | 44:26.14 | 3:23.18 | 199964 | 215206
12 | 47:49.32 | 5:55.39 | 215207 | 241870
13 | 53:44.71 | 5:55.31 | 241871 | 268526
14 | 59:40.27 | 4:55.25 | 268527 | 290676
15 | 64:35.52 | 6:08.57 | 290677 | 318333


Range status and errors

Selected range

Filename C:UsersArtursDesktopDef Leppard - Pyromania (Live).wav

Peak level 100.0 %
Extraction speed 3.7 X
Range quality 100.0 %
Test CRC 0EF6966F
Copy CRC 0EF6966F
Copy OK

No errors occurred


AccurateRip summary

Track 1 accurately ripped (confidence 70) [D34D762D] (AR v2)
Track 2 accurately ripped (confidence 71) [AE3F859A] (AR v2)
Track 3 accurately ripped (confidence 71) [F6D497FC] (AR v2)
Track 4 accurately ripped (confidence 71) [372692C5] (AR v2)
Track 5 accurately ripped (confidence 71) [3BD33EDB] (AR v2)
Track 6 accurately ripped (confidence 71) [80EAD886] (AR v2)
Track 7 accurately ripped (confidence 71) [1FFD33F8] (AR v2)
Track 8 accurately ripped (confidence 71) [BA61ED5C] (AR v2)
Track 9 accurately ripped (confidence 71) [C9E97861] (AR v2)
Track 10 accurately ripped (confidence 71) [2C1C71BA] (AR v2)
Track 11 accurately ripped (confidence 71) [8090D617] (AR v2)
Track 12 accurately ripped (confidence 71) [1DCB33F1] (AR v2)
Track 13 accurately ripped (confidence 72) [47AD39B7] (AR v2)
Track 14 accurately ripped (confidence 72) [30BE69DF] (AR v2)
Track 15 accurately ripped (confidence 72) [A24563C5] (AR v2)

All tracks accurately ripped

End of status report

–– CUETools DB Plugin V2.1.6

[CTDB TOCID: 88nc2JKF6K5ieUfO3ntBG5YANdY-] found
Submit result: already submitted
Track | CTDB Status
1 | (71/71) Accurately ripped
2 | (70/71) Accurately ripped
3 | (71/71) Accurately ripped
4 | (71/71) Accurately ripped
5 | (71/71) Accurately ripped
6 | (71/71) Accurately ripped
7 | (71/71) Accurately ripped
8 | (71/71) Accurately ripped
9 | (68/71) Accurately ripped
10 | (71/71) Accurately ripped
11 | (71/71) Accurately ripped
12 | (71/71) Accurately ripped
13 | (71/71) Accurately ripped
14 | (71/71) Accurately ripped
15 | (71/71) Accurately ripped


==== Log checksum 1EC2730B20CA1BDE77A54C704292796A5A30538BEDF056F614B14C4E8649A8BF ====

foobar2000 1.3.9 / Dynamic Range Meter 1.1.1
log date: 2016-02-14 15:21:52

––––––––––––––––––––––––––––––––––––––––
Analyzed: Def Leppard / Pyromania
––––––––––––––––––––––––––––––––––––––––

DR Peak RMS Duration Track
––––––––––––––––––––––––––––––––––––––––
DR8 0.00 dB -9.48 dB 3:56 01-Rock! Rock! (Till You Drop)
DR9 0.00 dB -10.75 dB 4:09 02-Photograph
DR9 -0.02 dB -10.49 dB 3:45 03-Stagefright
DR9 0.00 dB -10.88 dB 4:27 04-Too Late For Love
DR9 0.00 dB -10.72 dB 6:17 05-Die Hard The Hunter
DR9 0.00 dB -10.27 dB 4:35 06-Foolin'
DR9 0.00 dB -10.75 dB 4:08 07-Rock Of Ages
DR9 0.00 dB -10.15 dB 4:15 08-Comin' Under Fire
DR9 0.00 dB -10.06 dB 3:49 09-Action! Not Words
DR10 0.00 dB -11.58 dB 5:58 10-Billy's Got A Gun
––––––––––––––––––––––––––––––––––––––––

Number of tracks: 10
Official DR value: DR9

Samplerate: 44100 Hz
Channels: 2
Bits per sample: 16
Bitrate: 969 kbps
Codec: FLAC
================================================================================

foobar2000 1.3.9 / Dynamic Range Meter 1.1.1
log date: 2016-02-14 15:22:39

––––––––––––––––––––––––––––––––––––––––
Analyzed: Def Leppard / Pyromania (Live)
––––––––––––––––––––––––––––––––––––––––

DR Peak RMS Duration Track
––––––––––––––––––––––––––––––––––––––––
DR8 0.00 dB -9.79 dB 4:16 01-Rock! Rock! (Till You Drop)
DR8 0.00 dB -9.04 dB 3:25 02-Rock Brigade
DR8 0.00 dB -9.14 dB 3:22 03-High 'N' Dry (Saturday Night)
DR8 0.00 dB -9.27 dB 6:14 04-Another Hit And Run
DR8 0.00 dB -9.03 dB 4:43 05-Billy's Got A Gun
DR8 0.00 dB -8.53 dB 4:24 06-Mirror Mirror (Look Into My Eyes)
DR9 0.00 dB -10.33 dB 4:59 07-Foolin'
DR8 0.00 dB -8.88 dB 4:03 08-Photograph
DR8 0.00 dB -9.06 dB 4:53 09-Rock Of Ages
DR7 0.00 dB -8.07 dB 4:06 10-Bringin' On The Heartbreak
DR8 0.00 dB -8.47 dB 3:23 11-Switch 625
DR8 0.00 dB -8.99 dB 5:56 12-Let It Go
DR8 0.00 dB -10.00 dB 5:55 13-Wasted
DR8 0.00 dB -9.26 dB 4:55 14-Stagefright
DR7 0.00 dB -9.12 dB 6:09 15-Travelin' Band
––––––––––––––––––––––––––––––––––––––––

Number of tracks: 15
Official DR value: DR8

Samplerate: 44100 Hz
Channels: 2
Bits per sample: 16
Bitrate: 1053 kbps
Codec: FLAC
================================================================================

All thanks to London