Victor Feldman - Merry Olde Soul (1961) {Riverside}


Victor Feldman - Merry Olde Soul (1961) {Riverside}
EAC 0.95pb5 | FLAC tracks level 8 | Cue+Log+M3U | Full Scans 300dpi | 226MB + 5% Recovery
Genre: Straight-Ahead Jazz, Bop

Victor Feldman's one Riverside date as a leader (which has been reissued on CD) features him playing piano on five songs and vibes on four others (three of which add Hank Jones on piano). Joined by bassist Sam Jones and drummer Louis Hayes (both of whom were at the time, with Feldman, the rhythm section of the Cannonball Adderley Quintet), Feldman is in excellent form on a straight-ahead set. The trio/quartet performs five standards that for the most part are not overly familiar, plus four of the leader's originals. Tasteful and swinging music.
Track List
01. For Dancers Only 4:40
02. Lisa 4:04
03. Serenity 4:35
04. You Make Me Feel So Young 5:15
05. Come Sunday 2:15
06. The Man I Love 6:25
07. Bloke's Blues 5:32
08. I Want To Be Wanted 3:42
09. Mosey On Down - Feldman 3:57

musicians
Victor Feldman - piano, vibraphone
Hank Jones - piano
Sam Jones - bass
Louis Hayes - drums
Andy Simpkins - bass on track 4

Produced by Orrin Keepnews


EAC extraction logfile from 12. November 2007, 20:37 for CD
Victor Feldman / Merry Olde Soul

Used drive : ASUS DRW-1608P2S Adapter: 0 ID: 3
Read mode : Secure with NO C2, accurate stream, disable cache
Read offset correction : 48
Overread into Lead-In and Lead-Out : Yes

Used output format : C:Program FilesExact Audio CopyPluginsflac.exe (User Defined Encoder)
320 kBit/s
Additional command line options : -V -8 -T "artist=%a" -T "title=%t" -T "album=%g" -T "date=%y" -T "tracknumber=%n" -T "genre=%m" -T "comment=EAC 095pb5 / Flac 1.1.2 -8" %s

Other options :
Fill up missing offset samples with silence : Yes
Delete leading and trailing silent blocks : No
Native Win32 interface for Win NT & 2000


Track 1
Filename D:AudiolosslessVictor Feldman - Merry Olde Soul (1961) [FLAC]1 - For Dancers Only.wav

Pre-gap length 0:00:02.00

Peak level 63.4 %
Track quality 100.0 %
Test CRC A9ED71D0
Copy CRC A9ED71D0
Copy OK

Track 2
Filename D:AudiolosslessVictor Feldman - Merry Olde Soul (1961) [FLAC]2 - Lisa.wav

Peak level 50.5 %
Track quality 100.0 %
Test CRC DA0DEB88
Copy CRC DA0DEB88
Copy OK

Track 3
Filename D:AudiolosslessVictor Feldman - Merry Olde Soul (1961) [FLAC]3 - Serenity.wav

Peak level 59.5 %
Track quality 100.0 %
Test CRC B68A2A89
Copy CRC B68A2A89
Copy OK

Track 4
Filename D:AudiolosslessVictor Feldman - Merry Olde Soul (1961) [FLAC]4 - You Make Me Feel So Young.wav

Peak level 47.4 %
Track quality 100.0 %
Test CRC A8ECC84F
Copy CRC A8ECC84F
Copy OK

Track 5
Filename D:AudiolosslessVictor Feldman - Merry Olde Soul (1961) [FLAC]5 - Come Sunday.wav

Peak level 27.7 %
Track quality 100.0 %
Test CRC 0DDCCA07
Copy CRC 0DDCCA07
Copy OK

Track 6
Filename D:AudiolosslessVictor Feldman - Merry Olde Soul (1961) [FLAC]6 - The Man I Love.wav

Peak level 71.3 %
Track quality 100.0 %
Test CRC D111044E
Copy CRC D111044E
Copy OK

Track 7
Filename D:AudiolosslessVictor Feldman - Merry Olde Soul (1961) [FLAC]7 - Bloke's Blues.wav

Peak level 62.5 %
Track quality 100.0 %
Test CRC C079BBAD
Copy CRC C079BBAD
Copy OK

Track 8
Filename D:AudiolosslessVictor Feldman - Merry Olde Soul (1961) [FLAC]8 - I Want To Be Wanted.wav

Peak level 49.7 %
Track quality 100.0 %
Test CRC 8912DDB7
Copy CRC 8912DDB7
Copy OK

Track 9
Filename D:AudiolosslessVictor Feldman - Merry Olde Soul (1961) [FLAC]9 - Mosey On Down.wav

Peak level 42.0 %
Track quality 100.0 %
Test CRC 89E77182
Copy CRC 89E77182
Copy OK

No errors occured


End of status report


––––––––––––––––––––––––––––––––––––––––
Analyzed: Victor Feldman / Merry Olde Soul
––––––––––––––––––––––––––––––––––––––––

DR Peak RMS Duration Track
––––––––––––––––––––––––––––––––––––––––
DR15 -3.95 dB -22.34 dB 4:44 01-For Dancers Only
DR12 -5.92 dB -22.58 dB 4:06 02-Lisa
DR13 -4.50 dB -23.04 dB 4:38 03-Serenity
DR14 -6.47 dB -24.83 dB 5:18 04-You Make Me Feel So Young
DR11 -11.15 dB -26.45 dB 2:17 05-Come Sunday
DR14 -2.93 dB -21.72 dB 6:27 06-The Man I Love
DR13 -4.08 dB -20.43 dB 5:35 07-Bloke's Blues
DR13 -6.07 dB -23.28 dB 3:45 08-I Want To Be Wanted
DR13 -7.52 dB -23.41 dB 3:59 09-Mosey On Down
––––––––––––––––––––––––––––––––––––––––

Number of tracks: 9
Official DR value: DR13

Samplerate: 44100 Hz
Channels: 2
Bits per sample: 16
Bitrate: 714 kbps
Codec: FLAC
================================================================================



Rip by meszrum (HQS)