Jan Garbarek / The Hilliard Ensemble - Officium Novum (2010) {ECM 2125} [Re-Up]


Jan Garbarek / The Hilliard Ensemble - Officium Novum (2010) {ECM 2125}
EAC 0.99pb5 | FLAC tracks level 8 | Cue+Log+M3U | Full Scans 300dpi | 262MB + 5% Recovery
Genre: Classical, Jazz

Long-awaited third album from one of the most touching and magical sound combinations in music today: Norwegian saxophonist Jan Garbarek with Britain's premier vocal group, The Hilliard Ensemble. The first album, Officium, has sold nearly 1.5 million copies, and it is still in the charts as one of the top 20 best-selling classical albums of the past decade, well after its 1994 release.
Track List
01. Ov Zarmanali 4:11
02. Svjete Tihij 4:14
03. Allting Finns 4:18
04. Litany 13:06
05. Surb, surb 6:40
06. Most Holy Mother Of God 4:34
07. Tres Morillas 3:32
08. Sirt Im Sasani 4:06
09. Hays Hark Nviranats Ukhti 6:25
10. Alleluia. Nativitas 5:20
11. We Are The Stars 4:09
12. Nur Ein Weniges Noch 0:19

musicians
Jan Garbarek - soprano and tenor saxophones

The Hilliard Ensemble:
David James - countertenor
Rogers Covey-Crump - tenor
Steven Harrold - tenor
Gordon Jones - baritone

Produced by Manfred Eicher


Exact Audio Copy V0.99 prebeta 5 from 4. May 2009

EAC extraction logfile from 26. November 2010, 17:27

Jan Garbarek & The Hilliard Ensemble / Officium Novum

Used drive : HL-DT-STDVDRAM GH20NS10 Adapter: 2 ID: 0

Read mode : Secure
Utilize accurate stream : Yes
Defeat audio cache : Yes
Make use of C2 pointers : No

Read offset correction : 667
Overread into Lead-In and Lead-Out : No
Fill up missing offset samples with silence : Yes
Delete leading and trailing silent blocks : No
Null samples used in CRC calculations : Yes
Used interface : Native Win32 interface for Win NT & 2000
Gap handling : Appended to previous track

Used output format : User Defined Encoder
Selected bitrate : 1024 kBit/s
Quality : High
Add ID3 tag : No
Command line compressor : C:Program FilesExact Audio CopyFlacflac.exe
Additional command line options : -8 -V -T "ARTIST=%a" -T "TITLE=%t" -T "ALBUM=%g" -T "DATE=%y" -T "TRACKNUMBER=%n" -T "TOTALTRACKS=%x" -T "GENRE=%m" -T "ALBUMARTIST=%v" -T "ALBUM ARTIST=%v" -T "COMMENT=EAC Secure Mode, Test & Copy, AccurateRip, FLAC -8" %s


TOC of the extracted CD

Track | Start | Length | Start sector | End sector
––––––––––––––––––––––––––––-
1 | 0:00.00 | 4:11.18 | 0 | 18842
2 | 4:11.18 | 4:14.51 | 18843 | 37943
3 | 8:25.69 | 4:18.68 | 37944 | 57361
4 | 12:44.62 | 13:06.41 | 57362 | 116352
5 | 25:51.28 | 6:40.63 | 116353 | 146415
6 | 32:32.16 | 4:34.42 | 146416 | 167007
7 | 37:06.58 | 3:32.20 | 167008 | 182927
8 | 40:39.03 | 4:06.26 | 182928 | 201403
9 | 44:45.29 | 6:25.70 | 201404 | 230348
10 | 51:11.24 | 5:20.13 | 230349 | 254361
11 | 56:31.37 | 4:18.74 | 254362 | 273785
12 | 60:50.36 | 0:19.66 | 273786 | 275276


Track 1

Filename D:Jan Garbarek - Officium Novum (2010) [FLAC] {ECM 2125}1 - Ov Zarmanali.wav

Pre-gap length 0:00:02.00

Peak level 89.2 %
Track quality 100.0 %
Test CRC 51E0402B
Copy CRC 51E0402B
Accurately ripped (confidence 2) [30BCFC74]
Copy OK

Track 2

Filename D:Jan Garbarek - Officium Novum (2010) [FLAC] {ECM 2125}2 - Svjete Tihij.wav

Peak level 97.3 %
Track quality 99.9 %
Test CRC 585172E7
Copy CRC 585172E7
Accurately ripped (confidence 2) [05446F76]
Copy OK

Track 3

Filename D:Jan Garbarek - Officium Novum (2010) [FLAC] {ECM 2125}3 - Allting Finns.wav

Peak level 84.6 %
Track quality 100.0 %
Test CRC FEB49ABE
Copy CRC FEB49ABE
Accurately ripped (confidence 2) [196DA4DB]
Copy OK

Track 4

Filename D:Jan Garbarek - Officium Novum (2010) [FLAC] {ECM 2125}4 - Litany.wav

Peak level 97.0 %
Track quality 100.0 %
Test CRC 2544C33A
Copy CRC 2544C33A
Accurately ripped (confidence 2) [ECCB24B0]
Copy OK

Track 5

Filename D:Jan Garbarek - Officium Novum (2010) [FLAC] {ECM 2125}5 - Surb,Surb.wav

Peak level 98.2 %
Track quality 100.0 %
Test CRC EF7EF483
Copy CRC EF7EF483
Accurately ripped (confidence 2) [36E6784C]
Copy OK

Track 6

Filename D:Jan Garbarek - Officium Novum (2010) [FLAC] {ECM 2125}6 - Most Holy Mother Of God.wav

Peak level 34.3 %
Track quality 100.0 %
Test CRC 05480F44
Copy CRC 05480F44
Accurately ripped (confidence 2) [891525C3]
Copy OK

Track 7

Filename D:Jan Garbarek - Officium Novum (2010) [FLAC] {ECM 2125}7 - Tres Morillas.wav

Peak level 89.2 %
Track quality 100.0 %
Test CRC 37605048
Copy CRC 37605048
Accurately ripped (confidence 2) [ACD441B2]
Copy OK

Track 8

Filename D:Jan Garbarek - Officium Novum (2010) [FLAC] {ECM 2125}8 - Sirt Im Sasani.wav

Peak level 96.9 %
Track quality 100.0 %
Test CRC F5FFD9C5
Copy CRC F5FFD9C5
Accurately ripped (confidence 2) [AB26EFD0]
Copy OK

Track 9

Filename D:Jan Garbarek - Officium Novum (2010) [FLAC] {ECM 2125}9 - Hays Hark Nviranats Ukhti.wav

Peak level 83.8 %
Track quality 100.0 %
Test CRC 18C977F9
Copy CRC 18C977F9
Accurately ripped (confidence 2) [6B03E621]
Copy OK

Track 10

Filename D:Jan Garbarek - Officium Novum (2010) [FLAC] {ECM 2125}10 - Alleluia. Nativitas.wav

Peak level 92.0 %
Track quality 100.0 %
Test CRC 0D55BC12
Copy CRC 0D55BC12
Accurately ripped (confidence 2) [497A5C05]
Copy OK

Track 11

Filename D:Jan Garbarek - Officium Novum (2010) [FLAC] {ECM 2125}11 - We Are The Stars.wav

Peak level 99.5 %
Track quality 99.9 %
Test CRC 9E415A20
Copy CRC 9E415A20
Accurately ripped (confidence 2) [BB6D13DE]
Copy OK

Track 12

Filename D:Jan Garbarek - Officium Novum (2010) [FLAC] {ECM 2125}12 - Nur Ein Weniges Noch.wav

Peak level 5.5 %
Track quality 100.0 %
Test CRC 34B6BFC7
Copy CRC 34B6BFC7
Accurately ripped (confidence 2) [D74B9C08]
Copy OK


All tracks accurately ripped

No errors occurred

End of status report


––––––––––––––––––––––––––––––––––––––––
Analyzed: Jan Garbarek & The Hilliard Ensemble / Officium Novum
––––––––––––––––––––––––––––––––––––––––

DR Peak RMS Duration Track
––––––––––––––––––––––––––––––––––––––––
DR15 -0.99 dB -22.67 dB 4:11 01-Ov Zarmanali
DR16 -0.23 dB -22.28 dB 4:15 02-Svjete Tihij
DR14 -1.44 dB -20.32 dB 4:19 03-Allting Finns
DR14 -0.26 dB -21.11 dB 13:07 04-Litany
DR13 -0.15 dB -19.27 dB 6:41 05-Surb,Surb
DR13 -9.29 dB -29.32 dB 4:35 06-Most Holy Mother Of God
DR13 -0.99 dB -18.46 dB 3:32 07-Tres Morillas
DR15 -0.27 dB -21.58 dB 4:06 08-Sirt Im Sasani
DR14 -1.53 dB -21.80 dB 6:26 09-Hays Hark Nviranats Ukhti
DR13 -0.72 dB -18.39 dB 5:20 10-Alleluia. Nativitas
DR15 -0.04 dB -22.71 dB 4:19 11-We Are The Stars
DR10 -25.05 dB -38.29 dB 0:20 12-Nur Ein Weniges Noch
––––––––––––––––––––––––––––––––––––––––

Number of tracks: 12
Official DR value: DR14

Samplerate: 44100 Hz
Channels: 2
Bits per sample: 16
Bitrate: 372 kbps
Codec: FLAC
================================================================================



Rip by tiburon