Andy Pickford - Maelstrom (1995)


Andy Pickford - Maelstrom (1995)
EAC Rip | FLAC (image+.cue+log) - 482 MB | MP3 CBR 320 kbps (LAME 3.93) - 168 MB | Covers - 29 MB
Genre: Electronic, Ambient, New Age | RAR 3% Rec. | Label: Centaur Discs (CENCD 010)

The City of Derby is inextricably rich in railway history - it was Midland Railway's headquarters after all. Not exactly 'Grand Music Central', yet Saturday, 8 April 1995 saw 29 year-old Andy Pickford launching his new 'contemporary instrumental electronic music' album, Maelstrom, with an ambitious concert at Derby Cathedral. This event was well attended by over 400 people.
Tracklist:
01. Voyager
02. Cathedral
03. Blue World
04. Tetsuo
05. Symbiosis
06. Raumfahre
07. Oblivion
08. Hellsgate

Total time: 01:11:23

Exact Audio Copy V1.0 beta 2 from 29. April 2011

EAC extraction logfile from 28. July 2011, 0:32

Andy Pickford / Maelstrom

Used drive : PIONEER DVD-RW DVR-215D Adapter: 3 ID: 0

Read mode : Secure
Utilize accurate stream : Yes
Defeat audio cache : Yes
Make use of C2 pointers : No

Read offset correction : 48
Overread into Lead-In and Lead-Out : No
Fill up missing offset samples with silence : Yes
Delete leading and trailing silent blocks : No
Null samples used in CRC calculations : Yes
Used interface : Installed external ASPI interface

Used output format : Internal WAV Routines
Sample format : 44.100 Hz; 16 Bit; Stereo


TOC of the extracted CD

Track | Start | Length | Start sector | End sector
––––––––––––––––––––––––––––-
1 | 0:00.32 | 6:14.23 | 32 | 28104
2 | 6:14.55 | 4:46.55 | 28105 | 49609
3 | 11:01.35 | 9:04.70 | 49610 | 90479
4 | 20:06.30 | 7:27.17 | 90480 | 124021
5 | 27:33.47 | 15:31.58 | 124022 | 193904
6 | 43:05.30 | 5:42.25 | 193905 | 219579
7 | 48:47.55 | 11:19.12 | 219580 | 270516
8 | 60:06.67 | 11:15.65 | 270517 | 321206


Range status and errors

Selected range

Filename D:PostingRemember The Old SequenceAndy Pickford - Maelstrom.wav

Peak level 98.7 %
Extraction speed 8.3 X
Range quality 100.0 %
Copy CRC 2FA75FDD
Copy OK

No errors occurred


AccurateRip summary

Track 1 accurately ripped (confidence 3) [722B403F] (AR v1)
Track 2 accurately ripped (confidence 3) [D5BB7619] (AR v1)
Track 3 accurately ripped (confidence 3) [28E66FFE] (AR v1)
Track 4 accurately ripped (confidence 3) [435BD1B1] (AR v1)
Track 5 accurately ripped (confidence 3) [48016AB4] (AR v1)
Track 6 accurately ripped (confidence 3) [82027322] (AR v1)
Track 7 accurately ripped (confidence 3) [0DD137FA] (AR v1)
Track 8 accurately ripped (confidence 3) [1A8D801C] (AR v1)

All tracks accurately ripped

End of status report

==== Log checksum 96F1FC88118FB306EB3CBEC0F8F69B6E10FD9A161412697A1A34E3BC2EF50DCB ====

[CUETools log; Date: 16.02.2016 15:54:00; Version: 2.1.4]
Pregap length 00:00:32.
[CTDB TOCID: vnMwerN5TYgeqZr7nQK_1t71pTU-] found.
Track | CTDB Status
1 | (2/2) Accurately ripped
2 | (2/2) Accurately ripped
3 | (2/2) Accurately ripped
4 | (2/2) Accurately ripped
5 | (2/2) Accurately ripped
6 | (2/2) Accurately ripped
7 | (2/2) Accurately ripped
8 | (2/2) Accurately ripped
[AccurateRip ID: 0013cc32-008873ff-7a10ba08] found.
Track [ CRC | V2 ] Status
01 [722b403f|2358d72a] (4+5/9) Accurately ripped
02 [d5bb7619|5410d2fc] (4+5/9) Accurately ripped
03 [28e66ffe|8958e707] (4+5/9) Accurately ripped
04 [435bd1b1|88b6d7b3] (4+5/9) Accurately ripped
05 [48016ab4|719b9295] (4+5/9) Accurately ripped
06 [82027322|68c1d486] (4+5/9) Accurately ripped
07 [0dd137fa|b082e961] (4+5/9) Accurately ripped
08 [1a8d801c|3cc7d0bd] (4+4/8) Accurately ripped

Track Peak [ CRC32 ] [W/O NULL] [ LOG ]
– 98,7 [2FA75FDD] [C3CA1DA4] CRC32
01 98,7 [CDA9E299] [46E915F2]
02 98,7 [30366D25] [EBDDF679]
03 98,7 [F2E01BC2] [FBFC56CA]
04 98,7 [FAFCD0F9] [F068FA37]
05 98,7 [5C7F3E06] [7C17F714]
06 98,7 [A6C3D842] [CC6EC579]
07 98,7 [89A4BFB3] [BA367ABE]
08 80,3 [3C8DFB0D] [09D9DB90]

Thanks to Key

LOSSLESS:

_______________

MP3 320 kbps:

_______________

Covers: