Novecento feat. Dominic Miller - Surrender (2009) {Crisler Music}


Novecento feat. Dominic Miller - Surrender (2009) {Crisler Music}
EAC 1.0b3 | FLAC Image level 8 | Cue+Log | Full Scans 300dpi | 280MB + 5% Recovery
Genre: Fusion, Smooth Jazz

Novecento is an Italian music band founded by Pino Nicolosi, Lino Nicolosi, Rossana Nicolosi and Dora Carofiglio in 1984. Their music has gone through a variety of genres, such as Italo disco (early work), synthpop, soft rock, pop rock, jazz and funk. The band was mainly active in the 1980s and the 1990s, and became very popular with the song "Cry" in 2008.
Track List
01. Air 4:54
02. Swing Time 5:52
03. The Dream 4:54
04. Shape Of My Heart 5:22
05. Ice 4:08
06. People 4:03
07. La Belle Dame Sans Regrets 4:30
08. Softly 7:46
09. Me Heart 4:20

musicians
Dominic Miller - guitar
Manu Katchè - drums on track 9
Jeff Berlin - bass solo on track 2
Danny Gottlieb - drums on tracks 1, 2
Mike del Ferro - piano on track 8
Richard Drexler - double bass on track 1, 3 , electric piano "solo" on track 6
Lino Nicolosi - guitar on tracks 3, 6
Dora Nicolosi - vocals on tracks 2, 5, 8, 9
Rossana Nicolosi - bass
Pino Nicolosi - keyboards
Mimmo Campanale - drums

Produced by P.L. Nicolosi


Exact Audio Copy V1.0 beta 3 from 29. August 2011

EAC extraction logfile from 27. July 2013, 1:28

Novecento (feat. Dominic Miller) / Surrender

Used drive : Optiarc BD RW BD-5300S Adapter: 3 ID: 0

Read mode : Secure
Utilize accurate stream : Yes
Defeat audio cache : Yes
Make use of C2 pointers : No

Read offset correction : 6
Overread into Lead-In and Lead-Out : No
Fill up missing offset samples with silence : Yes
Delete leading and trailing silent blocks : No
Null samples used in CRC calculations : Yes
Used interface : Installed external ASPI interface

Used output format : User Defined Encoder
Selected bitrate : 1024 kBit/s
Quality : High
Add ID3 tag : No
Command line compressor : C:Program Files (x86)Exact Audio CopyFlacflac.exe
Additional command line options : -8 -V -T "Date=%year%" -T "Genre=%genre%" -T "COMMENT=ripped by bvstudio™" %source%


TOC of the extracted CD

Track | Start | Length | Start sector | End sector
––––––––––––––––––––––––––––-
1 | 0:00.00 | 4:54.00 | 0 | 22049
2 | 4:54.00 | 5:52.11 | 22050 | 48460
3 | 10:46.11 | 4:54.21 | 48461 | 70531
4 | 15:40.32 | 5:22.00 | 70532 | 94681
5 | 21:02.32 | 4:08.00 | 94682 | 113281
6 | 25:10.32 | 4:03.08 | 113282 | 131514
7 | 29:13.40 | 4:30.31 | 131515 | 151795
8 | 33:43.71 | 7:45.68 | 151796 | 186738
9 | 41:29.64 | 4:19.43 | 186739 | 206206


Range status and errors

Selected range

Filename F:Novecento2009 - Surrender (feat. Dominic Miller) (2009 - Soultrade. Italia - 0202062SLT)Novecento (feat. Dominic Miller) - Surrender.wav

Peak level 98.8 %
Extraction speed 8.4 X
Range quality 100.0 %
Test CRC 0509C120
Copy CRC 0509C120
Copy OK

No errors occurred


AccurateRip summary

Track 1 not present in database
Track 2 not present in database
Track 3 not present in database
Track 4 not present in database
Track 5 not present in database
Track 6 not present in database
Track 7 not present in database
Track 8 not present in database
Track 9 not present in database

None of the tracks are present in the AccurateRip database

End of status report

–– CUETools DB Plugin V2.1.5

[CTDB TOCID: PAcwAWlNbAVKgG7PkV98orK8opE-] found
Submit result: PAcwAWlNbAVKgG7PkV98orK8opE- has been confirmed
Track | CTDB Status
1 | (1/1) Accurately ripped
2 | (1/1) Accurately ripped
3 | (1/1) Accurately ripped
4 | (1/1) Accurately ripped
5 | (1/1) Accurately ripped
6 | (1/1) Accurately ripped
7 | (1/1) Accurately ripped
8 | (1/1) Accurately ripped
9 | (1/1) Accurately ripped


==== Log checksum 85DB2A4F70D3FC320D5699DCC3D6CD19FF5569037622A4AF05EAAB3012D27F44 ====


––––––––––––––––––––––––––––––––––––––––
Analyzed: Novecento (feat. Dominic Miller) / Surrender
––––––––––––––––––––––––––––––––––––––––

DR Peak RMS Duration Track
––––––––––––––––––––––––––––––––––––––––
DR7 -0.10 dB -10.00 dB 4:54 01-Air
DR8 -0.10 dB -10.78 dB 5:52 02-Swing Time
DR9 -0.10 dB -10.46 dB 4:54 03-The Dream
DR8 -0.10 dB -10.11 dB 5:22 04-Shape Of My Heart
DR8 -0.10 dB -10.33 dB 4:08 05-Ice
DR8 -0.10 dB -9.72 dB 4:03 06-People
DR12 -0.10 dB -14.73 dB 4:30 07-La Belle Dame Sans Regrets
DR8 -0.10 dB -9.91 dB 7:46 08-Softly
DR7 -0.10 dB -9.29 dB 4:20 09-Me Heart
––––––––––––––––––––––––––––––––––––––––

Number of tracks: 9
Official DR value: DR8

Samplerate: 44100 Hz
Channels: 2
Bits per sample: 16
Bitrate: 819 kbps
Codec: FLAC
================================================================================



Rip by bvstudio