Malady - Malady (2015)


Malady - Malady (2015)
EAC Rip | FLAC (tracks+.cue+log) - 251 MB | MP3 CBR 320 kbps (LAME 3.93) - 98 MB | Covers (5 MB) included
Genre: Progressive/Psychedelic Rock | RAR 3% Rec. | Label: Svart Records (SVR403CD)

Finland has a long-standing tradition of atmospheric, quirky progressive rock, from genre forefathers like Wigwam, Magyar, and Tasavallan Presidentti to modern-day stalwarts such as Sammal and Liekki. Svart Records is proud to present the latest link in the chain: Malady. When Malady was founded in 2010, the band members had one goal: to create one album before turning 50. That starting point for making music describes the band quite well. They don't work for glory, but with ambition. Malady is inspired by the 1970's Finnish prog tradition. Even though the search for the right sounds and tones took plenty of effort, the music is not just about retro-tripping. The storytelling of the meandering songs is supported by an analog soundscape. Malady's music is at the same time subtle and substantial.
Tracklist:
01. Kantaa Taakan Maa
02. Loittoneva Varjoni
03. Pieniin Saariin
04. Unessakävelijä
05. Aranivalkea
06. Kakarlampi

Total time: 39:29

Exact Audio Copy V1.0 beta 3 from 29. August 2011

EAC extraction logfile from 11. February 2016, 18:02

Malady / Malady

Used drive : _NEC DVD_RW ND-3540A Adapter: 1 ID: 0

Read mode : Secure
Utilize accurate stream : Yes
Defeat audio cache : Yes
Make use of C2 pointers : No

Read offset correction : 48
Overread into Lead-In and Lead-Out : No
Fill up missing offset samples with silence : Yes
Delete leading and trailing silent blocks : No
Null samples used in CRC calculations : Yes
Used interface : Native Win32 interface for Win NT & 2000
Gap handling : Appended to previous track

Used output format : User Defined Encoder
Selected bitrate : 1024 kBit/s
Quality : High
Add ID3 tag : Yes
Command line compressor : C:Program Files (x86)Exact Audio CopyFLACFLAC.EXE
Additional command line options : -6 -V -T "ARTIST=%artist%" -T "TITLE=%title%" -T "ALBUM=%albumtitle%" -T "DATE=%year%" -T "TRACKNUMBER=%tracknr%" -T "GENRE=%genre%" -T "COMMENT=%comment%" %hascover%–picture="%coverfile%"%hascover% %source% -o %dest%


TOC of the extracted CD

Track | Start | Length | Start sector | End sector
––––––––––––––––––––––––––––-
1 | 0:00.00 | 8:41.74 | 0 | 39148
2 | 8:41.74 | 2:31.53 | 39149 | 50526
3 | 11:13.52 | 7:56.60 | 50527 | 86286
4 | 19:10.37 | 7:27.26 | 86287 | 119837
5 | 26:37.63 | 10:19.38 | 119838 | 166300
6 | 36:57.26 | 2:31.65 | 166301 | 177690


Track 1

Filename F:Musicolaf_alienMalady - st. (2015, Svart)1 - Kantaa taakan maa.wav

Pre-gap length 0:00:02.00

Peak level 100.0 %
Extraction speed 4.9 X
Track quality 100.0 %
Test CRC D325D59F
Copy CRC D325D59F
Track not present in AccurateRip database
Copy OK

Track 2

Filename F:Musicolaf_alienMalady - st. (2015, Svart)2 - Loittoneva varjoni.wav

Peak level 86.2 %
Extraction speed 3.7 X
Track quality 99.9 %
Test CRC A1361D15
Copy CRC A1361D15
Track not present in AccurateRip database
Copy OK

Track 3

Filename F:Musicolaf_alienMalady - st. (2015, Svart)3 - Pieniin saariin.wav

Peak level 100.0 %
Extraction speed 6.1 X
Track quality 100.0 %
Test CRC 8A5446BE
Copy CRC 8A5446BE
Track not present in AccurateRip database
Copy OK

Track 4

Filename F:Musicolaf_alienMalady - st. (2015, Svart)4 - Unessakävelijä.wav

Peak level 100.0 %
Extraction speed 6.7 X
Track quality 100.0 %
Test CRC D0066217
Copy CRC D0066217
Track not present in AccurateRip database
Copy OK

Track 5

Filename F:Musicolaf_alienMalady - st. (2015, Svart)5 - Aranivalkea.wav

Peak level 100.0 %
Extraction speed 7.0 X
Track quality 99.9 %
Test CRC A04F270B
Copy CRC A04F270B
Track not present in AccurateRip database
Copy OK

Track 6

Filename F:Musicolaf_alienMalady - st. (2015, Svart)6 - Kakarlampi.wav

Peak level 57.8 %
Extraction speed 6.7 X
Track quality 100.0 %
Test CRC 1A50B4A6
Copy CRC 1A50B4A6
Track not present in AccurateRip database
Copy OK


None of the tracks are present in the AccurateRip database

No errors occurred

End of status report

==== Log checksum 5BC9C3C92FD25F8FB5227BC478397260F3D5A9E2BE2E537990B87927BEEBDF60 ====

[CUETools log; Date: 16.02.2016 16:04:02; Version: 2.1.4]
[CTDB TOCID: AG3n3qqq.67Re37XtKnTLXDPSDM-] found.
Track | CTDB Status
1 | (1/1) Accurately ripped
2 | (1/1) Accurately ripped
3 | (1/1) Accurately ripped
4 | (1/1) Accurately ripped
5 | (1/1) Accurately ripped
6 | (1/1) Accurately ripped
[AccurateRip ID: 0009c331-00341f35-4d094106] disk not present in database.

Track Peak [ CRC32 ] [W/O NULL] [ LOG ]
– 100,0 [0FE0AA34] [EF763DD1]
01 100,0 [D325D59F] [155467DD] CRC32
02 86,2 [A1361D15] [83606DEE] CRC32
03 100,0 [8A5446BE] [5407255A] CRC32
04 100,0 [D0066217] [4CADEFF9] CRC32
05 100,0 [A04F270B] [4C2FDEE7] CRC32
06 57,8 [1A50B4A6] [F00E4FE8] CRC32

Thanks to olaf_alien

LOSSLESS:

_______________

MP3 320 kbps: