Alfaomaga - 2 Studio Albums (1998-2000)


Alfaomaga - 2 Studio Albums (1998-2000)
EAC Rip | FLAC (image+.cue+log) - 577 MB | MP3 CBR 320 kbps (LAME 3.93) - 199 MB | Covers - 31 MB
Genre: Crossover Progressive Rock | RAR 3% Rec. | Label: Starlitt Music

In the fine European Art Rock genre, Alfaomaga has been together four years plus and are influenced by many artists. Influences such as early Genesis, Yes, Deep Purple are present but not restricting other sounds heard on Alfaomaga songs. All members of Alfaomaga are veterans with each having been around the Rock music world long enough to know what people like in their genre.
Vern B.Pearson - Vocals, Percussion
Rich M.Pearson - Drums, Percussion
Fred Schendel - Keyboards, Percussion, Acoustic Guitar
Terry Nunley, Thomas M.Cotter - Lead & Acoustic Guitars
Steve Babb - Bass Guitar
Dawn Mayo - Vocals

Alfaomaga - The Looking Glass (1998)
EAC Rip | FLAC (image+.cue+log) - 267 MB | MP3 CBR 320 kbps (LAME 3.93) - 97 MB | Covers - 14 MB
Genre: Crossover Progressive Rock | RAR 3% Rec. | Label: Starlitt Music

Tracklist:
01. Looking Glass
02. End of Time
03. Winter's Morn
04. I Had a Dream
05. Alien Quadogy
06. Slubber de Gullion
07. Arms Around You
08. Starlitt Sky
09. Omega Fin'

Total time: 41:12

Exact Audio Copy V1.1 from 23. June 2015

EAC extraction logfile from 15. September 2015, 21:47

Alfaomaga / The Looking Glass

Used drive : TEAC CD-W516EB Adapter: 1 ID: 1

Read mode : Secure
Utilize accurate stream : Yes
Defeat audio cache : Yes
Make use of C2 pointers : No

Read offset correction : 685
Overread into Lead-In and Lead-Out : No
Fill up missing offset samples with silence : Yes
Delete leading and trailing silent blocks : No
Null samples used in CRC calculations : Yes
Used interface : Native Win32 interface for Win NT & 2000

Used output format : User Defined Encoder
Selected bitrate : 1024 kBit/s
Quality : High
Add ID3 tag : Yes
Command line compressor : C:Program Files (x86)FLAC_1.3.1win64flac.exe
Additional command line options : -6 -V -T "ARTIST=%artist%" -T "TITLE=%title%" -T "ALBUM=%albumtitle%" -T "DATE=%year%" -T "TRACKNUMBER=%tracknr%" -T "GENRE=%genre%" -T "COMMENT=ripped by wurensh for rutracker.org" %source% -o %dest%


TOC of the extracted CD

Track | Start | Length | Start sector | End sector
––––––––––––––––––––––––––––-
1 | 0:00.00 | 5:57.40 | 0 | 26814
2 | 5:57.40 | 3:19.69 | 26815 | 41808
3 | 9:17.34 | 3:50.57 | 41809 | 59115
4 | 13:08.16 | 2:30.04 | 59116 | 70369
5 | 15:38.20 | 3:46.11 | 70370 | 87330
6 | 19:24.31 | 9:08.24 | 87331 | 128454
7 | 28:32.55 | 3:45.60 | 128455 | 145389
8 | 32:18.40 | 4:07.29 | 145390 | 163943
9 | 36:25.69 | 4:46.05 | 163944 | 185398


Range status and errors

Selected range

Filename Y:EACwurenshAlfaomagaAlfaomaga - The Looking Glass.wav

Peak level 100.0 %
Extraction speed 7.3 X
Range quality 100.0 %
Test CRC 9BE8C0F9
Copy CRC 9BE8C0F9
Copy OK

No errors occurred


AccurateRip summary

Track 1 not present in database
Track 2 not present in database
Track 3 not present in database
Track 4 not present in database
Track 5 not present in database
Track 6 not present in database
Track 7 not present in database
Track 8 not present in database
Track 9 not present in database

None of the tracks are present in the AccurateRip database

End of status report

–– CUETools DB Plugin V2.1.6

[CTDB TOCID: x35Py3wyKOM8Of4R3dz.t3QIODw-] disk not present in database
Submit result: x35Py3wyKOM8Of4R3dz.t3QIODw- has been uploaded


==== Log checksum E97025CE98CCB9603CBCA640E1AD62FA01E29A81CF5CBC2DBEDDD2F45D272046 ====

[CUETools log; Date: 16.02.2016 16:49:00; Version: 2.1.4]
[CTDB TOCID: x35Py3wyKOM8Of4R3dz.t3QIODw-] found.
Track | CTDB Status
1 | (2/2) Accurately ripped
2 | (2/2) Accurately ripped
3 | (2/2) Accurately ripped
4 | (2/2) Accurately ripped
5 | (2/2) Accurately ripped
6 | (2/2) Accurately ripped
7 | (2/2) Accurately ripped
8 | (2/2) Accurately ripped
9 | (2/2) Accurately ripped
[AccurateRip ID: 000ddd55-0065fa0d-7e09a709] found.
Track [ CRC | V2 ] Status
01 [476dd445|5f084909] (0+1/1) Accurately ripped
02 [99787797|deb8af2e] (0+1/1) Accurately ripped
03 [e27b464c|e12a544c] (0+1/1) Accurately ripped
04 [001caee9|8904ad09] (0+1/1) Accurately ripped
05 [a5d65f58|cb34839d] (0+1/1) Accurately ripped
06 [28ebd549|f0386173] (0+1/1) Accurately ripped
07 [6c97c84b|56533f16] (0+1/1) Accurately ripped
08 [bb4f0798|75756b72] (0+1/1) Accurately ripped
09 [f8dd82c9|1a8cbd21] (0+1/1) Accurately ripped

Track Peak [ CRC32 ] [W/O NULL] [ LOG ]
– 100,0 [9BE8C0F9] [2279907A] CRC32
01 96,5 [AE4AE4DC] [4FD53337]
02 94,3 [6499DDA9] [7B49A76F]
03 97,6 [A6EBB04D] [9ABD1D4A]
04 100,0 [A3517A74] [2B882320]
05 96,5 [901B64AE] [E84BA1EC]
06 96,5 [1E40E0D9] [56603C3B]
07 96,5 [C6A60D95] [97195D75]
08 86,4 [D279C644] [DC61562A]
09 42,3 [1413B8BA] [6A5F4F1D]


Alfaomaga - Voices in a Dream (2000)
EAC Rip | FLAC (image+.cue+log) - 310 MB | MP3 CBR 320 kbps (LAME 3.93) - 102 MB | Covers - 17 MB
Genre: Crossover Progressive Rock | RAR 3% Rec. | Label: Starlitt Music

Tracklist:
01. Voices in a Dream
02. Slipping
03. Springtime
04. Field of Marigolds
05. The England Boyz
06. Man in the Dark
07. DMC
08. Sighs
09. My, My, Girl
10. Melodream
11. Balls

Total time: 43:39

Exact Audio Copy V1.0 beta 6 from 9. April 2015

EAC extraction logfile from 28. May 2015, 0:20

Alfaomaga / Voices in a Dream

Used drive : TEAC CD-W516EB Adapter: 1 ID: 1

Read mode : Secure
Utilize accurate stream : Yes
Defeat audio cache : Yes
Make use of C2 pointers : No

Read offset correction : 685
Overread into Lead-In and Lead-Out : No
Fill up missing offset samples with silence : Yes
Delete leading and trailing silent blocks : No
Null samples used in CRC calculations : Yes
Used interface : Native Win32 interface for Win NT & 2000

Used output format : User Defined Encoder
Selected bitrate : 1024 kBit/s
Quality : High
Add ID3 tag : Yes
Command line compressor : C:Program Files (x86)FLACflac.exe
Additional command line options : -6 -V -T "ARTIST=%artist%" -T "TITLE=%title%" -T "ALBUM=%albumtitle%" -T "DATE=%year%" -T "TRACKNUMBER=%tracknr%" -T "GENRE=%genre%" -T "COMMENT=ripped by wurensh for rutracker.org" %source% -o %dest%


TOC of the extracted CD

Track | Start | Length | Start sector | End sector
––––––––––––––––––––––––––––-
1 | 0:00.00 | 4:15.30 | 0 | 19154
2 | 4:15.30 | 4:08.69 | 19155 | 37823
3 | 8:24.24 | 4:52.73 | 37824 | 59796
4 | 13:17.22 | 3:51.16 | 59797 | 77137
5 | 17:08.38 | 3:52.35 | 77138 | 94572
6 | 21:00.73 | 1:12.38 | 94573 | 100010
7 | 22:13.36 | 4:50.16 | 100011 | 121776
8 | 27:03.52 | 6:06.71 | 121777 | 149297
9 | 33:10.48 | 3:07.63 | 149298 | 163385
10 | 36:18.36 | 2:40.11 | 163386 | 175396
11 | 38:58.47 | 4:39.73 | 175397 | 196394


Range status and errors

Selected range

Filename Y:EACwurenshAlfaomagaAlfaomaga - Voices in a Dream.wav

Peak level 100.0 %
Extraction speed 3.8 X
Range quality 100.0 %
Test CRC 0836A32E
Copy CRC 0836A32E
Copy OK

No errors occurred


AccurateRip summary

Track 1 not present in database
Track 2 not present in database
Track 3 not present in database
Track 4 not present in database
Track 5 not present in database
Track 6 not present in database
Track 7 not present in database
Track 8 not present in database
Track 9 not present in database
Track 10 not present in database
Track 11 not present in database

None of the tracks are present in the AccurateRip database

End of status report

–– CUETools DB Plugin V2.1.6

[CTDB TOCID: 0T4Sq.i7qOozZeVPwrgvF2vdjCQ-] disk not present in database
Submit result: 0T4Sq.i7qOozZeVPwrgvF2vdjCQ- has been uploaded


==== Log checksum 60BA61589AD6F58307D4D762DF4ED8D0F446C45F500EA5601879CD7BF488930D ====

[CUETools log; Date: 16.02.2016 16:49:28; Version: 2.1.4]
[CTDB TOCID: 0T4Sq.i7qOozZeVPwrgvF2vdjCQ-] found.
Track | CTDB Status
1 | (2/2) Accurately ripped
2 | (2/2) Accurately ripped
3 | (2/2) Accurately ripped
4 | (2/2) Accurately ripped
5 | (2/2) Accurately ripped
6 | (2/2) Accurately ripped
7 | (2/2) Accurately ripped
8 | (2/2) Accurately ripped
9 | (2/2) Accurately ripped
10 | (2/2) Accurately ripped
11 | (2/2) Accurately ripped
[AccurateRip ID: 00123aff-009ce439-860a3a0b] found.
Track [ CRC | V2 ] Status
01 [4f80be23|cf63201c] (0+1/1) Accurately ripped
02 [21f5e1a9|0e6b3914] (0+1/1) Accurately ripped
03 [8ee06ab8|75efb716] (0+1/1) Accurately ripped
04 [4c82fd1d|f9659033] (0+1/1) Accurately ripped
05 [03a4ba69|5e76ab63] (0+1/1) Accurately ripped
06 [cd279b1b|e73835c4] (0+1/1) Accurately ripped
07 [731b5ef0|88b4efbe] (0+1/1) Accurately ripped
08 [0d8f600e|1f8d4c92] (0+1/1) Accurately ripped
09 [cb1389d7|09b96aac] (0+1/1) Accurately ripped
10 [9f2989c8|98177153] (0+1/1) Accurately ripped
11 [8129be49|64a1af08] (0+1/1) Accurately ripped

Track Peak [ CRC32 ] [W/O NULL] [ LOG ]
– 100,0 [0836A32E] [82A7FBE4] CRC32
01 99,9 [FAD3DE77] [23614350]
02 99,9 [3F5DA461] [FCA04A4D]
03 99,9 [3ED903CF] [696296C2]
04 99,9 [0643D7DA] [D19ADB4F]
05 100,0 [EF5A1AA3] [F0ABE5C5]
06 79,2 [AF19FBA1] [3BAEFF85]
07 100,0 [54298B4D] [92FAF36F]
08 99,9 [A0612B8A] [36816356]
09 99,9 [D447AF77] [634F8125]
10 99,6 [E706B5BE] [EF97A1C4]
11 99,9 [ADE670BC] [F2EB8586]

Thanks to wurensh

Alfaomaga - The Looking Glass (1998)

LOSSLESS:

_______________

MP3 320 kbps:

_______________

Covers:

______________________________________

Alfaomaga - Voices in a Dream (2000)

LOSSLESS:

_______________

MP3 320 kbps:

_______________

Covers: