Thin Lizzy - Johnny The Fox (1976)


Thin Lizzy - Johnny The Fox (1976)
EAC Rip | FLAC (Img) + Cue + Log ~ 248 Mb | MP3 CBR320 ~ 87 Mb
Scans (JPG, 600 dpi) ~ 49 Mb | RAR 5% Recovery
Classic Rock, Hard Rock | © 1996 Mercury Records Ltd. #532 295-2

Johnny the Fox is the seventh studio album by Irish band Thin Lizzy, released in 1976. This album was written and recorded while bassist/vocalist Phil Lynott was recovering from a bout of hepatitis that put him off the road halfway through the previous Jailbreak tour. "Don't Believe a Word" was a British hit single. Johnny the Fox was the last Thin Lizzy studio album on which guitarist Brian Robertson featured as a full member of the band, as the personality clashes between him and Lynott resulted in Robertson being sacked, reinstated, and later sacked again. ~ Wiki

Jailbreak was such a peak that it was inevitable that its follow-up would fall short in some fashion and Johnny the Fox, delivered the same year as its predecessor, did indeed pale in comparison. What's interesting about Johnny the Fox is that it's interesting, hardly a rote repetition of Jailbreak but instead an odd, fitfully successful evolution forward. All the same strengths are still here – the band still sounds as thunderous as a force of nature, Phil Lynott's writing is still graced with elegant turns of phrase, his singing is still soulful and seductive – but the group ramped up the inherent drama in Lynott's songs by pushing them toward an odd, half-baked concept album. There may be a story within Johnny the Fox – characters are introduced and brought back, at the very least – but it's impossible to tell. If the album only had an undercooked narrative and immediate songs, such digressions would be excusable, but the music is also a bit elliptical in spots, sometimes sounding theatrical, sometimes relying on narration. None of this falls flat, but it's never quite as gripping as Jailbreak – or the best moments here, for that matter, because when Johnny the Fox is good, it's great, as on the surging "Don't Believe a Word" or the elegiac "Borderline." These are the reasons why Johnny the Fox is worth the extra effort, because it does pay off even if it isn't quite as good as what came immediately before – or immediately afterward, for that matter.
~ Stephen Thomas Erlewine, All Music
| | |

***************


Track List:

01. Boogie Woogie Dance [03:14]
02. Borderline [04:37]
03. Don't Believe A Word [02:19]
04. Fools Gold [03:58]
05. Johnny [04:28]
06. Johnny The Fox Meets Jimmy The Weed [03:43]
07. Massacre [03:02]
08. Old Flame [03:11]
09. Rocky [03:44]
10. Sweet Marie [03:59]

Exact Audio Copy V1.0 beta 1 from 15. November 2010

EAC extraction logfile from 17. February 2016, 18:26

Thin Lizzy / Johnny The Fox

Used drive : MATSHITADVD-RAM UJ8A0AS Adapter: 0 ID: 1

Read mode : Secure
Utilize accurate stream : Yes
Defeat audio cache : Yes
Make use of C2 pointers : No

Read offset correction : 102
Overread into Lead-In and Lead-Out : No
Fill up missing offset samples with silence : Yes
Delete leading and trailing silent blocks : No
Null samples used in CRC calculations : Yes
Used interface : Native Win32 interface for Win NT & 2000

Used output format : Internal WAV Routines
Sample format : 44.100 Hz; 16 Bit; Stereo


TOC of the extracted CD

Track | Start | Length | Start sector | End sector
––––––––––––––––––––––––––––-
1 | 0:00.00 | 4:27.32 | 0 | 20056
2 | 4:27.32 | 3:43.08 | 20057 | 36789
3 | 8:10.40 | 4:36.55 | 36790 | 57544
4 | 12:47.20 | 2:18.45 | 57545 | 67939
5 | 15:05.65 | 3:57.02 | 67940 | 85716
6 | 19:02.67 | 3:42.25 | 85717 | 102391
7 | 22:45.17 | 3:10.68 | 102392 | 116709
8 | 25:56.10 | 3:01.57 | 116710 | 130341
9 | 28:57.67 | 3:58.40 | 130342 | 148231
10 | 32:56.32 | 3:13.18 | 148232 | 162724


Range status and errors

Selected range

Filename C:UsersAlexMusicAlexharveyThin Lizzy - Johnny The Fox.wav

Peak level 100.0 %
Extraction speed 0.1 X
Range quality 100.0 %
Test CRC 4BADDE22
Copy CRC 4BADDE22
Copy OK

No errors occurred


AccurateRip summary

Track 1 accurately ripped (confidence 10) [0535A6B4]
Track 2 accurately ripped (confidence 10) [F0FCE350]
Track 3 accurately ripped (confidence 10) [E431FE3A]
Track 4 accurately ripped (confidence 10) [782C8765]
Track 5 accurately ripped (confidence 10) [AB9E856C]
Track 6 accurately ripped (confidence 10) [70D5998F]
Track 7 accurately ripped (confidence 10) [172C6444]
Track 8 accurately ripped (confidence 10) [DDEF48D3]
Track 9 accurately ripped (confidence 10) [358580AF]
Track 10 accurately ripped (confidence 10) [8CEBE777]

All tracks accurately ripped

End of status report

==== Log checksum DB9A6F58E7A7B8FD0B2955D8D322BEC8013904AF004186F16BD32420DF8F2639 ====

foobar2000 1.2.6 / Dynamic Range Meter 1.1.1
log date: 2016-02-18 16:59:34

––––––––––––––––––––––––––––––––––––––––
Analyzed: Thin Lizzy / Johnny The Fox
––––––––––––––––––––––––––––––––––––––––

DR Peak RMS Duration Track
––––––––––––––––––––––––––––––––––––––––
DR11 -0.02 dB -12.21 dB 4:27 01-Johnny
DR10 -0.01 dB -10.93 dB 3:43 02-Rocky
DR12 0.00 dB -13.65 dB 4:37 03-Borderline
DR11 0.00 dB -11.97 dB 2:19 04-Don't Believe A Word
DR11 0.00 dB -12.69 dB 3:57 05-Fools Gold
DR11 -0.06 dB -12.88 dB 3:42 06-Johnny The Fox Meets Jimmy The Weed
DR11 0.00 dB -12.76 dB 3:11 07-Old Flame
DR9 0.00 dB -10.28 dB 3:02 08-Massacre
DR11 0.00 dB -13.42 dB 3:59 09-Sweet Marie
DR9 0.00 dB -10.08 dB 3:13 10-Boogie Woogie Dance
––––––––––––––––––––––––––––––––––––––––

Number of tracks: 10
Official DR value: DR11

Samplerate: 44100 Hz
Channels: 2
Bits per sample: 16
Bitrate: 911 kbps
Codec: FLAC
================================================================================

[CUETools log; Date: 18.02.2016 16:59:16; Version: 2.1.5]
[CTDB TOCID: pMTi0ldhxOGelMnkdCiQF.iQE0E-] found.
Track | CTDB Status
1 | (33/33) Accurately ripped
2 | (33/33) Accurately ripped
3 | (33/33) Accurately ripped
4 | (32/33) Accurately ripped
5 | (32/33) Accurately ripped
6 | (32/33) Accurately ripped
7 | (33/33) Accurately ripped
8 | (33/33) Accurately ripped
9 | (33/33) Accurately ripped
10 | (32/33) Accurately ripped
[AccurateRip ID: 000e2ac2-006fdaa0-a308790a] found.
Track [ CRC | V2 ] Status
01 [0535a6b4|35fe7ada] (11+10/84) Accurately ripped
02 [f0fce350|73b732ac] (12+10/84) Accurately ripped
03 [e431fe3a|505e074d] (12+10/85) Accurately ripped
04 [782c8765|5ad7b875] (12+10/85) Accurately ripped
05 [ab9e856c|c7785dca] (12+10/85) Accurately ripped
06 [70d5998f|1ccee680] (12+10/84) Accurately ripped
07 [172c6444|e2da39ca] (12+10/85) Accurately ripped
08 [ddef48d3|0c414939] (12+10/86) Accurately ripped
09 [358580af|763d4524] (12+10/85) Accurately ripped
10 [8cebe777|4ad3adf8] (12+10/85) Accurately ripped
Offsetted by -664:
01 [71a04c24] (18/84) Accurately ripped
02 [25deacd8] (18/84) Accurately ripped
03 [7ff437aa] (18/85) Accurately ripped
04 [a9acea25] (18/85) Accurately ripped
05 [370ef624] (18/85) Accurately ripped
06 [39fe0c90] (18/84) Accurately ripped
07 [e395e30f] (18/85) Accurately ripped
08 [ea6e84a3] (18/86) Accurately ripped
09 [2a92cb8f] (18/85) Accurately ripped
10 [823e31f7] (18/85) Accurately ripped
Offsetted by 622:
01 [22bc2908] (02/84) Accurately ripped
02 [059e9656] (02/84) Accurately ripped
03 [2590df8e] (02/85) Accurately ripped
04 [f8d6f675] (02/85) Accurately ripped
05 [b6e12516] (02/85) Accurately ripped
06 [7eaaa757] (02/84) Accurately ripped
07 [fc32ef76] (02/85) Accurately ripped
08 [9d05fa6f] (02/86) Accurately ripped
09 [c2dc8557] (02/85) Accurately ripped
10 [5b8d1557] (02/85) Accurately ripped
Offsetted by 664:
01 [98cb0144] (13/84) Accurately ripped
02 [bc1b19c8] (12/84) Accurately ripped
03 [486fc4ca] (13/85) Accurately ripped
04 [46ac24a5] (13/85) Accurately ripped
05 [202e14b4] (13/85) Accurately ripped
06 [0e8bf100] (13/84) Accurately ripped
07 [81c9def3] (13/85) Accurately ripped
08 [d1700d03] (13/86) Accurately ripped
09 [407835cf] (13/85) Accurately ripped
10 [97999cf7] (13/85) Accurately ripped
Offsetted by 914:
01 [e9ce0860] (02/84) Accurately ripped
02 [5bdbae4a] (02/84) Accurately ripped
03 [e73d00e6] (02/85) Accurately ripped
04 [15f66855] (02/85) Accurately ripped
05 [cfebd7c2] (02/85) Accurately ripped
06 [a1135165] (02/84) Accurately ripped
07 [75b7bcb0] (02/85) Accurately ripped
08 [77246337] (02/86) Accurately ripped
09 [be6c4407] (02/85) Accurately ripped
10 [525e1997] (02/85) Accurately ripped

Track Peak [ CRC32 ] [W/O NULL] [ LOG ]
– 100,0 [4BADDE22] [CCB03636] CRC32
01 99,8 [1C90F60E] [2229E823]
02 99,8 [7904E0E5] [18810BEB]
03 100,0 [F7F07D30] [9A58C20B]
04 100,0 [37778BFA] [049598E7]
05 100,0 [91202F9D] [1EBFE43E]
06 99,3 [37CD259F] [7874FD48]
07 100,0 [403C24FB] [FC4B0A42]
08 100,0 [6AFE18FE] [647C0379]
09 100,0 [C6578AC8] [83F308D2]
10 100,0 [6445AE88] [5930B17B]



See also:


All thanks go to Alexharvey



No mirrors, please!

Download: