Bachman-Turner Overdrive - The All Time Greatest Hits Live (1990)


Bachman-Turner Overdrive - The All Time Greatest Hits Live (1990)
EAC Rip | FLAC (Img) + Cue + Log ~ 265 Mb | MP3 CBR320 ~ 87 Mb
Scans (JPG, 600 dpi) ~ 48 Mb | RAR 5% Recovery
Rock | Curb Records #D2-77328

A Retitled CD Reissue Of 1986 release "Bachman-Turner Overdrive - Live Live Live."

Live!-Live!-Live! (Curb Records, 1986) is an album containing live recordings from 1985 Bachman-Turner Overdrive concerts in Tallahassee, FL and Detroit, MI.

It was recorded with the lineup from the Bachman-Turner Overdrive 1984 reunion album - a short-lived line up of the band featuring founding members Randy Bachman, Tim Bachman, and C. F. "Fred" Turner, who had not played together since Tim's departure after the second BTO album. This lineup was joined by drummer Garry Peterson from Randy's old band, The Guess Who.

The album features a previously unreleased track, "Fragile Man," which is actually a studio version with the crowd added onto the recording. A live version of another new song, "Bad News Travels Fast", is also included. The track was only otherwise found in studio form on the soundtrack to the 1987 comedy film Body Slam. A cover of Mountain's "Mississippi Queen" rounds out the unexpected inclusions on a BTO album for this release.

This album was later re-released on CD and cassette as All Time Greatest Hits Live in 1990 (Curb/EMI), which is still currently in print (not to be confused with the 1994 Curb release Best of Bachman–Turner Overdrive Live, a separate concert recording featuring the same line up of the band).
~ Wiki


This Curb collection – like many the label offers – is a thoroughly dodgy selection assembled in the postmortem of ragged, late-era, live versions of some of the band's biggest hits. While "Takin Care of Business" sounds like the group were bored out of their minds running through it yet one more time, "You Ain't Seen Nothin' Yet"sounds like the band-on-quaaludes version." This set should be avoided by anyone who has ever held BTO dear.
~ Thom Jurek, All Music
| | |

***************


Track List:

01. Hey You [03:58]
02. Mississippi Queen [04:20]
03. Sledgehammer [04:50]
04. Fragile Man [04:10]
05. Bad News Travels Fast [03:58]
06. You Ain't Seen Nothin' Yet [03:45]
07. Roll On Down The Highway [04:52]
08. Takin' Care Of Business [06:22]

Exact Audio Copy V1.0 beta 1 from 15. November 2010

EAC extraction logfile from 19. February 2016, 19:19

Bachman-Turner Overdrive / The All Time Greatest Hits Live

Used drive : MATSHITADVD-RAM UJ8A0AS Adapter: 0 ID: 1

Read mode : Secure
Utilize accurate stream : Yes
Defeat audio cache : Yes
Make use of C2 pointers : No

Read offset correction : 102
Overread into Lead-In and Lead-Out : No
Fill up missing offset samples with silence : Yes
Delete leading and trailing silent blocks : No
Null samples used in CRC calculations : Yes
Used interface : Native Win32 interface for Win NT & 2000

Used output format : Internal WAV Routines
Sample format : 44.100 Hz; 16 Bit; Stereo


TOC of the extracted CD

Track | Start | Length | Start sector | End sector
––––––––––––––––––––––––––––-
1 | 0:00.32 | 3:57.50 | 32 | 17856
2 | 3:58.07 | 4:19.53 | 17857 | 37334
3 | 8:17.60 | 4:49.47 | 37335 | 59056
4 | 13:07.32 | 4:09.50 | 59057 | 77781
5 | 17:17.07 | 3:57.28 | 77782 | 95584
6 | 21:14.35 | 3:44.65 | 95585 | 112449
7 | 24:59.25 | 4:51.67 | 112450 | 134341
8 | 29:51.17 | 6:21.10 | 134342 | 162926


Range status and errors

Selected range

Filename C:UsersAlexMusicAlexharveyBachman-Turner Overdrive - The All Time Greatest Hits Live.wav

Peak level 100.0 %
Extraction speed 0.2 X
Range quality 99.9 %
Test CRC A979126A
Copy CRC A979126A
Copy OK

No errors occurred


AccurateRip summary

Track 1 accurately ripped (confidence 9) [12FB4C93]
Track 2 accurately ripped (confidence 9) [32B68728]
Track 3 accurately ripped (confidence 9) [5294758D]
Track 4 accurately ripped (confidence 9) [1A64CCBC]
Track 5 accurately ripped (confidence 9) [5A1DD826]
Track 6 accurately ripped (confidence 9) [C0434CA4]
Track 7 accurately ripped (confidence 9) [34AF0B2A]
Track 8 accurately ripped (confidence 9) [08E8E30E]

All tracks accurately ripped

End of status report

==== Log checksum 385C57EAF6BA2BF9B8D22E324EC8A65FE236341E10A69A6F58E4E2E0B3C8644C ====

foobar2000 1.2.6 / Dynamic Range Meter 1.1.1
log date: 2016-02-20 00:39:17

––––––––––––––––––––––––––––––––––––––––
Analyzed: Bachman-Turner Overdrive / The All Time Greatest Hits Live
––––––––––––––––––––––––––––––––––––––––

DR Peak RMS Duration Track
––––––––––––––––––––––––––––––––––––––––
DR15 -0.41 dB -17.22 dB 3:58 01-Hey You
DR14 0.00 dB -14.74 dB 4:20 02-Mississippi Queen
DR13 0.00 dB -15.65 dB 4:50 03-Sledgehammer
DR12 -1.66 dB -15.09 dB 4:10 04-Fragile Man
DR11 -2.09 dB -14.78 dB 3:57 05-Bad News Travels Fast
DR14 0.00 dB -15.31 dB 3:45 06-You Ain't Seen Nothin' Yet
DR14 -0.22 dB -15.92 dB 4:52 07-Roll On Down The Highway
DR13 0.00 dB -14.90 dB 6:21 08-Takin' Care Of Business
––––––––––––––––––––––––––––––––––––––––

Number of tracks: 8
Official DR value: DR13

Samplerate: 44100 Hz
Channels: 2
Bits per sample: 16
Bitrate: 975 kbps
Codec: FLAC
================================================================================

[CUETools log; Date: 20.02.2016 0:39:04; Version: 2.1.5]
Pregap length 00:00:32.
[CTDB TOCID: 3NfPR5u8vThV7tvgIcMHqDG2lEw-] found.
Track | CTDB Status
1 | (8/9) Accurately ripped
2 | (8/9) Accurately ripped
3 | (8/9) Accurately ripped
4 | (9/9) Accurately ripped
5 | (9/9) Accurately ripped
6 | (9/9) Accurately ripped
7 | (9/9) Accurately ripped
8 | (9/9) Accurately ripped
[AccurateRip ID: 000aa417-00475444-6e087c08] found.
Track [ CRC | V2 ] Status
01 [12fb4c93|f730b268] (11+09/24) Accurately ripped
02 [32b68728|5c0a57a3] (12+09/25) Accurately ripped
03 [5294758d|f5c078e3] (12+09/25) Accurately ripped
04 [1a64ccbc|d155a0e8] (12+09/25) Accurately ripped
05 [5a1dd826|70d62726] (12+09/25) Accurately ripped
06 [c0434ca4|e0d5acc1] (11+09/24) Accurately ripped
07 [34af0b2a|f010b738] (12+09/25) Accurately ripped
08 [08e8e30e|80e684cf] (12+09/25) Accurately ripped
Offsetted by -1424:
01 [b326a7f6] (02/24) Accurately ripped
02 [d79face9] (02/25) Accurately ripped
03 [e5dc8069] (02/25) Accurately ripped
04 [d994b3a8] (02/25) Accurately ripped
05 [fad59abc] (02/25) Accurately ripped
06 [ca599c9e] (02/24) Accurately ripped
07 [6168fad4] (02/25) Accurately ripped
08 [c13cae34] (02/25) Accurately ripped
Offsetted by -381:
01 [03e681dd] (00/24) No match (V2 was not tested)
02 [b28b7e2b] (00/25) No match (V2 was not tested)
03 [31bf7bda] (00/25) No match (V2 was not tested)
04 [31692ad0] (00/25) No match (V2 was not tested)
05 [7e60b639] (00/25) No match (V2 was not tested)
06 [3a039d32] (00/24) No match (V2 was not tested)
07 [ae28eccb] (00/25) No match (V2 was not tested)
08 [63e162c5] (00/25) No match (V2 was not tested)

Track Peak [ CRC32 ] [W/O NULL] [ LOG ]
– 100,0 [A979126A] [DBBDE87A] CRC32
01 95,4 [842B4DD5] [BC6D0E81]
02 99,9 [62F17BEC] [A010BC37]
03 100,0 [830BFE08] [81035825]
04 82,5 [095D9FFA] [E881A928]
05 78,6 [1E80A11B] [73800CBB]
06 99,9 [371A530F] [85F4A37C]
07 97,4 [53C37752] [1A01360E]
08 100,0 [AEE983B7] [B017C0C5]



See also:




All thanks go to Alexharvey



No mirrors, please!

Download: