Matenda - Discography [3 Studio Albums] (2001-2007)


Matenda - Discography [3 Studio Albums] (2001-2007)
EAC Rip | FLAC (image+.cue+log) - 1,36 GB | MP3 CBR 320 kbps (LAME 3.93) - 491 MB | Covers - 149 MB
Genre: Psytrance, Progressive Trance | RAR 3% Rec. | Label: Spiral Trax, Flow Records, Global Phonehead Records

Energy Loader (2001). Denis Matenda was born in Sweden by Croatian parents. Already at school, he started to fiddle around with keyboards and played in a band. Even though not connected to the other acts from Gothenburg he shares the same musical background and influences, a bit of funk, a bit of rock and a huge devotion to Jean-Michel Jarre and early electronic music; something that can be easily heard on his debut album, Energy Loader. The sound is what can easiest be described as trademark Gothenburg trance, or the sound of Spiral Trax.
Tunnel Vision (2004). This beautiful morning trance album is going to hit the summer like a bomb, high quality trance for progressive and psychedelic minds, to hear and feel everywhere anywhere. The sound of Matenda can easily be described with some few keywords; progressive, morning, atmosphere, groovy and hypnotic.
Natural Development (2007). Matenda's 3rd full-length album 'Natural development', will fit everybody's taste with its wide range of musical styles. From influences of trance, electro, house to downbeat and more club-inspired sounds. The album Natural development is a fusion between the down-tempo project 'Chilling Matenda', and the more up-tempo project 'Matenda'.


Matenda - Energy Loader (2001)
EAC Rip | FLAC (image+.cue+log) - 455 MB | MP3 CBR 320 kbps (LAME 3.93) - 175 MB | Covers - 51 MB
Genre: Psytrance, Progressive Trance | RAR 3% Rec. | Label: Spiral Trax (SPIT CD 009)

Tracklist:
01. Welcome Sunshine
02. Adverse Selection
03. Creative Destruction
04. Energy Loader
05. Free Rider
06. You Can Run But You Can't Hide
07. Faros
08. Lipo More

Total time: 01:14:28

Exact Audio Copy V0.99 prebeta 5 from 4. May 2009

EAC extraction logfile from 27. September 2009, 1:43

Matenda / Energy Loader

Used drive : Optiarc DVD RW AD-7240S Adapter: 0 ID: 1

Read mode : Secure
Utilize accurate stream : Yes
Defeat audio cache : Yes
Make use of C2 pointers : No

Read offset correction : 48
Overread into Lead-In and Lead-Out : No
Fill up missing offset samples with silence : Yes
Delete leading and trailing silent blocks : No
Null samples used in CRC calculations : Yes
Used interface : Installed external ASPI interface

Used output format : User Defined Encoder
Selected bitrate : 1024 kBit/s
Quality : High
Add ID3 tag : No
Command line compressor : C:Program FilesExact Audio CopyFLACFLAC.EXE
Additional command line options : -8 -V -T "ARTIST=%a" -T "TITLE=%t" -T "ALBUM=%g" -T "DATE=%y" -T "TRACKNUMBER=%n" -T "GENRE=%m" -T "COMMENT=%e" %s -o %d


TOC of the extracted CD

Track | Start | Length | Start sector | End sector
––––––––––––––––––––––––––––-
1 | 0:00.00 | 10:39.24 | 0 | 47948
2 | 10:39.24 | 8:24.57 | 47949 | 85805
3 | 19:04.06 | 9:04.26 | 85806 | 126631
4 | 28:08.32 | 9:02.11 | 126632 | 167292
5 | 37:10.43 | 8:31.46 | 167293 | 205663
6 | 45:42.14 | 8:17.33 | 205664 | 242971
7 | 53:59.47 | 10:32.58 | 242972 | 290429
8 | 64:32.30 | 9:55.26 | 290430 | 335080


Range status and errors

Selected range

Filename D:_EAC_RippedMatenda - Energy Loader.wav

Peak level 99.7 %
Range quality 100.0 %
Test CRC 3AA58AC6
Copy CRC 3AA58AC6
Copy OK

No errors occurred


AccurateRip summary

Track 1 accurately ripped (confidence 1) [6CBB5FD7]
Track 2 accurately ripped (confidence 1) [6A4B3C86]
Track 3 accurately ripped (confidence 1) [D52B6CD7]
Track 4 accurately ripped (confidence 1) [A2C97324]
Track 5 accurately ripped (confidence 1) [B5035B3B]
Track 6 accurately ripped (confidence 1) [38F4F2BA]
Track 7 accurately ripped (confidence 1) [62B6976E]
Track 8 accurately ripped (confidence 1) [E82B3840]

All tracks accurately ripped

End of status report

[CUETools log; Date: 19.02.2016 18:57:12; Version: 2.1.4]
[CTDB TOCID: sDdOX0Wt.38_AaF4TS8idEPubxE-] found.
Track | CTDB Status
1 | (3/3) Accurately ripped
2 | (3/3) Accurately ripped
3 | (3/3) Accurately ripped
4 | (3/3) Accurately ripped
5 | (3/3) Accurately ripped
6 | (3/3) Accurately ripped
7 | (3/3) Accurately ripped
8 | (3/3) Accurately ripped
[AccurateRip ID: 0016ea83-0098225b-63117308] found.
Track [ CRC | V2 ] Status
01 [6cbb5fd7|ef0a5202] (4+0/4) Accurately ripped
02 [6a4b3c86|9ef90c55] (4+0/4) Accurately ripped
03 [d52b6cd7|68287ee4] (4+0/4) Accurately ripped
04 [a2c97324|d2a8b74e] (4+0/4) Accurately ripped
05 [b5035b3b|56467fab] (4+0/4) Accurately ripped
06 [38f4f2ba|59dc6086] (4+0/4) Accurately ripped
07 [62b6976e|15e7310e] (4+0/4) Accurately ripped
08 [e82b3840|38553c9d] (4+0/4) Accurately ripped

Track Peak [ CRC32 ] [W/O NULL] [ LOG ]
– 99,7 [3AA58AC6] [D14969DA] CRC32
01 99,4 [D9B979D9] [BA1947B5]
02 99,7 [EBC405D9] [5D0C883B]
03 99,7 [E42BEAEB] [3780EF53]
04 99,2 [72D10CFE] [D82CFA16]
05 99,4 [88352209] [8DED1B42]
06 99,7 [9F04045F] [EDAA14D7]
07 99,4 [AD4FE90B] [AA5C6F0C]
08 99,4 [9CBD5BD6] [84BAC7FC]


Matenda - Tunnel Vision (2004)
EAC Rip | FLAC (image+.cue+log) - 420 MB | MP3 CBR 320 kbps (LAME 3.93) - 148 MB | Covers - 48 MB
Genre: Psytrance, Progressive Trance | RAR 3% Rec. | Label: Flow Records (FLR0412CD)

Tracklist:
01. Starlight
02. Tunnel Vision
03. Digital Highway
04. Pusher
05. Kravata
06. Novo Jutro
07. Dream Cruiser
08. Force Majeure

Total time: 01:02:54

Exact Audio Copy V0.99 prebeta 5 from 4. May 2009

EAC extraction logfile from 28. October 2009, 23:50

Matenda / Tunnel Vision

Used drive : Optiarc DVD RW AD-7240S Adapter: 0 ID: 1

Read mode : Secure
Utilize accurate stream : Yes
Defeat audio cache : Yes
Make use of C2 pointers : No

Read offset correction : 48
Overread into Lead-In and Lead-Out : No
Fill up missing offset samples with silence : Yes
Delete leading and trailing silent blocks : No
Null samples used in CRC calculations : Yes
Used interface : Installed external ASPI interface

Used output format : User Defined Encoder
Selected bitrate : 1024 kBit/s
Quality : High
Add ID3 tag : No
Command line compressor : C:Program FilesExact Audio CopyFLACFLAC.EXE
Additional command line options : -8 -V -T "ARTIST=%a" -T "TITLE=%t" -T "ALBUM=%g" -T "DATE=%y" -T "TRACKNUMBER=%n" -T "GENRE=%m" -T "COMMENT=%e" %s -o %d


TOC of the extracted CD

Track | Start | Length | Start sector | End sector
––––––––––––––––––––––––––––-
1 | 0:00.00 | 8:35.36 | 0 | 38660
2 | 8:35.36 | 7:52.59 | 38661 | 74119
3 | 16:28.20 | 7:55.40 | 74120 | 109784
4 | 24:23.60 | 7:47.44 | 109785 | 144853
5 | 32:11.29 | 8:31.38 | 144854 | 183216
6 | 40:42.67 | 7:00.73 | 183217 | 214789
7 | 47:43.65 | 7:15.26 | 214790 | 247440
8 | 54:59.16 | 7:54.73 | 247441 | 283063


Range status and errors

Selected range

Filename D:_EAC_RippedMatenda - Tunnel Vision.wav

Peak level 97.7 %
Range quality 100.0 %
Test CRC 5081ECDA
Copy CRC 5081ECDA
Copy OK

No errors occurred


AccurateRip summary

Track 1 accurately ripped (confidence 2) [CDED0AEB]
Track 2 accurately ripped (confidence 2) [1C77011E]
Track 3 accurately ripped (confidence 2) [6FB6E024]
Track 4 accurately ripped (confidence 2) [BE2B1E21]
Track 5 accurately ripped (confidence 2) [227DB0FA]
Track 6 accurately ripped (confidence 2) [A09B10F3]
Track 7 accurately ripped (confidence 2) [47C8C3CC]
Track 8 accurately ripped (confidence 2) [FA69242B]

All tracks accurately ripped

End of status report

[CUETools log; Date: 19.02.2016 18:52:34; Version: 2.1.4]
[CTDB TOCID: VKN8gjoB6ezCNqxLo.IKmq7F62Y-] found.
Track | CTDB Status
1 | (2/2) Accurately ripped
2 | (2/2) Accurately ripped
3 | (2/2) Accurately ripped
4 | (2/2) Accurately ripped
5 | (2/2) Accurately ripped
6 | (2/2) Accurately ripped
7 | (2/2) Accurately ripped
8 | (2/2) Accurately ripped
[AccurateRip ID: 0013c63c-00831e85-6b0ebe08] found.
Track [ CRC | V2 ] Status
01 [cded0aeb|5111891c] (3+0/3) Accurately ripped
02 [1c77011e|5e2eb0fc] (3+0/3) Accurately ripped
03 [6fb6e024|5d223753] (3+0/3) Accurately ripped
04 [be2b1e21|cf6014fe] (3+0/3) Accurately ripped
05 [227db0fa|8e8274ba] (3+0/3) Accurately ripped
06 [a09b10f3|472092be] (3+0/3) Accurately ripped
07 [47c8c3cc|5642383d] (3+0/3) Accurately ripped
08 [fa69242b|2cff33b1] (3+0/3) Accurately ripped

Track Peak [ CRC32 ] [W/O NULL] [ LOG ]
– 97,7 [5081ECDA] [8CEAA36C] CRC32
01 97,7 [03C17053] [4BB9DCFD]
02 97,7 [135E9101] [84202894]
03 97,7 [DFFE10C8] [2D452327]
04 97,7 [D4D34F0B] [2AB5834B]
05 97,7 [8F54F61E] [3A91DE45]
06 97,7 [C8F2A445] [0671BD01]
07 97,7 [13FE2306] [7F21E3CA]
08 97,7 [D0A1E2FA] [9E34C159]


Matenda - Natural Development (2007)
EAC Rip | FLAC (image+.cue+log) - 488 MB | MP3 CBR 320 kbps (LAME 3.93) - 168 MB | Covers - 50 MB
Genre: Psytrance, Progressive Trance | RAR 3% Rec. | Label: Global Phonehead Records (GPCD002)

Tracklist:
01. Speculator
02. Plain Vanilla
03. Natural Development
04. Perspectives
05. Sounds Around
06. Electronegative
07. Equilibrium
08. Invisible Garbage
09. Epsilon
10. Orphean

Total time: 01:11:40

Exact Audio Copy V0.99 prebeta 4 from 23. January 2008

EAC extraction logfile from 4. September 2008, 8:12

Matenda / Natural Development

Used drive : Optiarc DVD RW AD-7203S Adapter: 3 ID: 0

Read mode : Secure
Utilize accurate stream : Yes
Defeat audio cache : Yes
Make use of C2 pointers : No

Read offset correction : 48
Overread into Lead-In and Lead-Out : No
Fill up missing offset samples with silence : Yes
Delete leading and trailing silent blocks : No
Null samples used in CRC calculations : Yes
Used interface : Installed external ASPI interface

Used output format : User Defined Encoder
Selected bitrate : 1024 kBit/s
Quality : High
Add ID3 tag : No
Command line compressor : C:Program FilesExact Audio CopyFLACFLAC.EXE
Additional command line options : -8 -V -T "ARTIST=%a" -T "TITLE=%t" -T "ALBUM=%g" -T "DATE=%y" -T "TRACKNUMBER=%n" -T "GENRE=%m" -T "COMMENT=%e" %s -o %d


TOC of the extracted CD

Track | Start | Length | Start sector | End sector
––––––––––––––––––––––––––––-
1 | 0:00.00 | 6:58.36 | 0 | 31385
2 | 6:58.36 | 6:25.26 | 31386 | 60286
3 | 13:23.62 | 5:29.28 | 60287 | 84989
4 | 18:53.15 | 10:04.01 | 84990 | 130290
5 | 28:57.16 | 6:35.64 | 130291 | 159979
6 | 35:33.05 | 4:59.33 | 159980 | 182437
7 | 40:32.38 | 8:34.00 | 182438 | 220987
8 | 49:06.38 | 7:38.10 | 220988 | 255347
9 | 56:44.48 | 7:13.01 | 255348 | 287823
10 | 63:57.49 | 7:42.02 | 287824 | 322475


Range status and errors

Selected range

Filename C:Matenda - Natural Development.wav

Peak level 97.7 %
Range quality 100.0 %
Test CRC 08EFC597
Copy CRC 08EFC597
Copy OK

No errors occurred


AccurateRip summary

Track 1 accurately ripped (confidence 2) [276330E1]
Track 2 accurately ripped (confidence 2) [30111739]
Track 3 accurately ripped (confidence 2) [F8EE4B26]
Track 4 accurately ripped (confidence 2) [4A87D76B]
Track 5 accurately ripped (confidence 2) [C2592693]
Track 6 accurately ripped (confidence 2) [5F28C927]
Track 7 accurately ripped (confidence 2) [144ABBA4]
Track 8 accurately ripped (confidence 2) [5D83A73F]
Track 9 accurately ripped (confidence 2) [973405A9]
Track 10 accurately ripped (confidence 2) [21782DA3]

All tracks accurately ripped

End of status report

[CUETools log; Date: 19.02.2016 18:58:44; Version: 2.1.4]
[CTDB TOCID: q6MCQOMcatyNxE5OtdiHUlk5k2E-] found.
Track | CTDB Status
1 | (1/1) Accurately ripped
2 | (1/1) Accurately ripped
3 | (1/1) Accurately ripped
4 | (1/1) Accurately ripped
5 | (1/1) Accurately ripped
6 | (1/1) Accurately ripped
7 | (1/1) Accurately ripped
8 | (1/1) Accurately ripped
9 | (1/1) Accurately ripped
10 | (1/1) Accurately ripped
[AccurateRip ID: 001a7d48-00d510f3-8610cb0a] found.
Track [ CRC | V2 ] Status
01 [276330e1|7d818bb4] (3+2/5) Accurately ripped
02 [30111739|917647cc] (3+2/5) Accurately ripped
03 [f8ee4b26|5cf9b0b6] (3+2/5) Accurately ripped
04 [4a87d76b|ee8733f2] (3+2/5) Accurately ripped
05 [c2592693|d6462458] (3+2/5) Accurately ripped
06 [5f28c927|93d6d98d] (3+2/5) Accurately ripped
07 [144abba4|040a3798] (3+2/5) Accurately ripped
08 [5d83a73f|6e056ae4] (3+2/5) Accurately ripped
09 [973405a9|976c2206] (3+2/5) Accurately ripped
10 [21782da3|2fc9c88c] (3+2/5) Accurately ripped

Track Peak [ CRC32 ] [W/O NULL] [ LOG ]
– 97,7 [08EFC597] [1DB64E25] CRC32
01 97,7 [01F8D0DE] [CCB9544B]
02 97,7 [C88676E1] [9148B743]
03 97,7 [30602BB0] [7325FE85]
04 97,7 [EA17760D] [1E6A5405]
05 97,7 [A5F48ADF] [55C23E0E]
06 97,7 [E7864E3C] [8DE69BCF]
07 97,7 [B2CF86DE] [647AE3C2]
08 97,7 [43805ADE] [1893F4DA]
09 97,7 [5E1AA59B] [C4175603]
10 97,7 [53C47810] [EBAD2091]

Thanks to EPSmuz

See also:

Matenda - Energy Loader (2001)

LOSSLESS:

_______________

MP3 320 kbps:

_______________

Covers:

______________________________________

Matenda - Tunnel Vision (2004)

LOSSLESS:

_______________

MP3 320 kbps:

_______________

Covers:

______________________________________

Matenda - Natural Development (2007)

LOSSLESS:

_______________

MP3 320 kbps:

_______________

Covers: