Gary Moore - Old New Ballads Blues (2006) {Japan 1-st press}


Gary Moore - Old New Ballads Blues (2006)
EAC Rip | FLAC (Img) + Cue + Log ~ 364 Mb | MP3 CBR320 ~ 134 Mb
Scans (JPG, 300 dpi) ~ 37 Mb | RAR 5% Recovery
Blues, Blues Rock | Victor #VICP-63480

Since the early '90s Belfast guitar whiz Gary Moore has returned again and again to the blues, leaving his metal phase far behind. Old New Ballads Blues is exactly what the title says it is, a mix of old blues (covers of songs by Elmore James, Willie Dixon, and Otis Rush), new blues (five Moore originals), ballads (half the album) and, well, blues (by one definition or another, everything here passes for blues). The real surprise is that the strongest songs are the original Moore-penned ballads, as Moore gives powerful and atmospheric performances (both vocally and as a guitarist) on "Gonna Rain Today," "No Reason to Cry," and a solid horn-augmented remake of one of his best songs, "Midnight Blues," from what is easily his best album, 1990s million-selling Still Got the Blues. The James and Dixon covers ("Done Something Wrong" and "You Know My Love" respectively) seem disappointingly by-the-numbers, while the Rush song, "All Your Love," fares a bit better, but Moore's own compositions shine brightest here, giving him plenty of room to weep on the old Les Paul, which is a very good thing, since vocals have never been Moore's strongest suit and his lyrics are often on the slight side. All of that vanishes when his guitar takes over a song, and on the instrumental "Cut It Out," Moore's muscular guitar tone says as much or more about life inside the blues as any of the vocal numbers.
~ Steve Leggett, All Music
| | |

***************


Track List:

01. Done Something Wrong [0:03:06.70]
02. You Know My Love [0:07:17.55]
03. Midnight Blues (2006) [0:05:45.00]
04. Ain't Nobody [0:04:51.30]
05. Gonna Rain Today [0:04:40.30]
06. All Your Love (2006) [0:04:29.35]
07. Flesh & Blood [0:04:52.45]
08. Cut It Out [0:05:35.40]
09. No Reason To Cry [0:09:01.45]
10. I'll Play The Blues For You [0:06:03.45]

Exact Audio Copy V1.1 from 23. June 2015

EAC extraction logfile from 10. February 2016, 12:55

Gary Moore / Old New Ballads Blues [VICP-63480]

Used drive : HL-DT-STBD-RE BH10LS38 Adapter: 1 ID: 1

Read mode : Secure
Utilize accurate stream : Yes
Defeat audio cache : Yes
Make use of C2 pointers : No

Read offset correction : 667
Overread into Lead-In and Lead-Out : No
Fill up missing offset samples with silence : Yes
Delete leading and trailing silent blocks : No
Null samples used in CRC calculations : Yes
Used interface : Installed external ASPI interface

Used output format : User Defined Encoder
Selected bitrate : 128 kBit/s
Quality : High
Add ID3 tag : No
Command line compressor : C:Program Files (x86)Exact Audio Copywavpack-4.60.1wavpack.exe
Additional command line options : -hm -w "Year=%year%" -w "Genre=%genre%" %source% %dest%


TOC of the extracted CD

Track | Start | Length | Start sector | End sector
––––––––––––––––––––––––––––-
1 | 0:00.00 | 3:06.70 | 0 | 14019
2 | 3:06.70 | 7:17.55 | 14020 | 46849
3 | 10:24.50 | 5:45.00 | 46850 | 72724
4 | 16:09.50 | 4:51.30 | 72725 | 94579
5 | 21:01.05 | 4:40.30 | 94580 | 115609
6 | 25:41.35 | 4:29.35 | 115610 | 135819
7 | 30:10.70 | 4:52.45 | 135820 | 157764
8 | 35:03.40 | 5:35.40 | 157765 | 182929
9 | 40:39.05 | 9:01.45 | 182930 | 223549
10 | 49:40.50 | 6:03.45 | 223550 | 250819


Range status and errors

Selected range

Filename G:Rips by AlderGary Moore - Old New Ballads Blues [VICP-63480].wav

Peak level 98.9 %
Extraction speed 7.4 X
Range quality 99.9 %
Test CRC 23505D4A
Copy CRC 23505D4A
Copy OK

No errors occurred


AccurateRip summary

Track 1 accurately ripped (confidence 1) [7BC78CB5] (AR v1)
Track 2 accurately ripped (confidence 1) [4412327B] (AR v1)
Track 3 accurately ripped (confidence 1) [E998E0A9] (AR v1)
Track 4 accurately ripped (confidence 1) [6E598641] (AR v1)
Track 5 accurately ripped (confidence 1) [8F010973] (AR v1)
Track 6 accurately ripped (confidence 1) [6810677C] (AR v1)
Track 7 accurately ripped (confidence 1) [9DD41A37] (AR v1)
Track 8 accurately ripped (confidence 1) [C6274178] (AR v1)
Track 9 accurately ripped (confidence 1) [AB983004] (AR v1)
Track 10 accurately ripped (confidence 1) [8B421864] (AR v1)

All tracks accurately ripped

End of status report

–– CUETools DB Plugin V2.1.6

[CTDB TOCID: .rLsvuxoMx5COgepsNC2rm5fLsU-] found
Submit result: .rLsvuxoMx5COgepsNC2rm5fLsU- has been confirmed
Track | CTDB Status
1 | (2/2) Accurately ripped
2 | (2/2) Accurately ripped
3 | (2/2) Accurately ripped
4 | (2/2) Accurately ripped
5 | (2/2) Accurately ripped
6 | (2/2) Accurately ripped
7 | (2/2) Accurately ripped
8 | (2/2) Accurately ripped
9 | (2/2) Accurately ripped
10 | (2/2) Accurately ripped


==== Log checksum 348C4778C009F318C6B44A8926B54087932CB18CADB65789D2C7FC95A34AADC3 ====

foobar2000 1.2.6 / Dynamic Range Meter 1.1.1
log date: 2016-02-20 00:21:46

––––––––––––––––––––––––––––––––––––––––
Analyzed: Gary Moore / Old New Ballads Blues [VICP-63480]
––––––––––––––––––––––––––––––––––––––––

DR Peak RMS Duration Track
––––––––––––––––––––––––––––––––––––––––
DR10 -0.10 dB -11.82 dB 3:07 01-Done Something Wrong
DR9 -0.09 dB -10.10 dB 7:18 02-You Know My Love
DR9 -0.17 dB -10.46 dB 5:45 03-Midnight Blues (2006)
DR10 -0.10 dB -10.83 dB 4:51 04-Ain't Nobody
DR12 -0.17 dB -14.45 dB 4:40 05-Gonna Rain Today
DR9 -0.09 dB -9.81 dB 4:29 06-All Your Love (2006)
DR9 -0.17 dB -10.99 dB 4:53 07-Flesh & Blood
DR9 -0.12 dB -9.88 dB 5:36 08-Cut It Out
DR8 -0.11 dB -9.41 dB 9:02 09-No Reason To Cry
DR8 -0.10 dB -9.66 dB 6:04 10-I'll Play The Blues For You
––––––––––––––––––––––––––––––––––––––––

Number of tracks: 10
Official DR value: DR9

Samplerate: 44100 Hz
Channels: 2
Bits per sample: 16
Bitrate: 870 kbps
Codec: FLAC
================================================================================

[CUETools log; Date: 20.02.2016 0:21:47; Version: 2.1.5]
[CTDB TOCID: .rLsvuxoMx5COgepsNC2rm5fLsU-] found.
Track | CTDB Status
1 | (3/3) Accurately ripped
2 | (3/3) Accurately ripped
3 | (3/3) Accurately ripped
4 | (3/3) Accurately ripped
5 | (3/3) Accurately ripped
6 | (3/3) Accurately ripped
7 | (3/3) Accurately ripped
8 | (3/3) Accurately ripped
9 | (3/3) Accurately ripped
10 | (3/3) Accurately ripped
[AccurateRip ID: 0013c14e-009fe8b9-7f0d100a] found.
Track [ CRC | V2 ] Status
01 [7bc78cb5|0ddb5381] (1+0/1) Accurately ripped
02 [4412327b|ae796455] (1+0/1) Accurately ripped
03 [e998e0a9|8ae53a39] (1+0/1) Accurately ripped
04 [6e598641|8a5f6bc5] (1+0/1) Accurately ripped
05 [8f010973|ef7c98de] (1+0/1) Accurately ripped
06 [6810677c|008d5d05] (1+0/1) Accurately ripped
07 [9dd41a37|9d0a4f34] (1+0/1) Accurately ripped
08 [c6274178|fb253180] (1+0/1) Accurately ripped
09 [ab983004|d49c0a19] (1+0/1) Accurately ripped
10 [8b421864|52e57b3d] (1+0/1) Accurately ripped

Track Peak [ CRC32 ] [W/O NULL] [ LOG ]
– 98,9 [23505D4A] [0C21E90F] CRC32
01 98,8 [9F28CD52] [89EAD0D6]
02 98,9 [27C252F0] [06421316]
03 98,0 [66ECB046] [8438239B]
04 98,8 [5F9A5589] [923E3F45]
05 98,0 [097B37B3] [2B80348E]
06 98,9 [E8934E4B] [4CFFF0BC]
07 98,0 [B70D8A7C] [F083B390]
08 98,6 [FF86BE24] [6EFA774E]
09 98,7 [EAAEBD93] [3997B211]
10 98,8 [2EDA64A8] [4EC85535]



All thanks go to Alder



No mirrors, please!

Download: