Вход в свой аккаунт

Или войдите через соц. сети

Dick Dale - Unknown Territory (1994)


Dick Dale - Unknown Territory (1994)
EAC Rip | FLAC with CUE and log | scans | 370 mb
MP3 CBR 320kbps | RAR | 129 mb
Genre: rock'n'roll, surf rock

Unknown Territory is the 1994 CD by the king of the surf guitar, the late Dick Dale. Special guest is Huey Lewis, who performs the harmonica on two songs. This was released by the Hightone label.
With the studio team that recorded the triumphant comeback Tribal Thunder, including legendary Tubes drummer Prairie Prince, Dale peeled off another smoking set of originals, covers and reinterpretations of older material. The energy and fire in opening track "Scalped" alone means that the title could apply to just about any miserable hair-metal guitarist who thinks challenging Dale is a good idea. Unknown Territory also features a neat cameo – none other than Huey Lewis provides the honking harmonica on two tracks. One of them, "F Groove," is a duet between Lewis and Dale over a slow, funky beat – listening to the two trade off is a delight. The titles and music of Dale's originals capture his vibe and Southern California's to a T. The rollicking "Terra Dictyl" and "Maria Elena" are more reasons why Dale is The Man, and who else but a surfer would write a song called "Fish Taco"? As always, Dale's choice of covers is idiosyncratic and successful, beginning with Boudelaux Bryant's "Mexico." The drumming arrangement on this one is a dream, matching Dale's joyous guitar runs perfectly. Other covers include a kicking "Ghostriders in the Sky," the album-closing "Ring of Fire," and an only appropriate rip through the Rivieras' frat-rock classic "California Sun," the latter two featuring Dale's only main vocals on the album. Perhaps the most jaw-dropping revamp is of the Jewish standard "Hava Nagila" – given Dale's own Middle Eastern musical and family roots, the choice was inspired, and the job he does on it is perfection. Add in the eight-minute atmospheric strut of the title track and his cautionary environmental tale "The Beast," and Dale does it again in spades.


01. Scalped
02. Mexico
03. F Groove
04. Terra Dicktyl
05. Take It Or Leave It
06. Ghostriders In The Sky
07. Fish Taco
08. California Sun
09. Maria Elena
10. Hava Negila
11. The Beast
12. Unknown Territory
13. Ring Of Fire
–-
Dick Dale-guitars & vocals
Scott Mathews-drums & percussion
Prairie Prince-drums & percussion
Ron Eglit-bass & 6-string bass
Huey Lewis-harmonica on "Ghostriders" and "F Groove"


Produced by Scott Mathews
Co-produced by Dick Dale



EAC extraction logfile from 15. July 2006, 11:45 for CD
Dick Dale / Unknown Territory

Used drive : LITE-ON DVDRW SOHW-1633S Adapter: 0 ID: 0
Read mode : Secure with NO C2, accurate stream, disable cache
Read offset correction : 12
Overread into Lead-In and Lead-Out : No

Used output format : Internal WAV Routines
44.100 Hz; 16 Bit; Stereo

Other options :
Fill up missing offset samples with silence : Yes
Delete leading and trailing silent blocks : No
Installed external ASPI interface


Track 1
Filename D:FLACDick Dale - Unknown Territory (1994) [FLAC]1 - Scalped.wav

Pre-gap length 0:00:02.00

Peak level 98.8 %
Track quality 100.0 %
Test CRC 49664141
Copy CRC 49664141
Copy OK

Track 2
Filename D:FLACDick Dale - Unknown Territory (1994) [FLAC]2 - Mexico.wav

Pre-gap length 0:00:00.66

Peak level 98.8 %
Track quality 100.0 %
Test CRC DB23C131
Copy CRC DB23C131
Copy OK

Track 3
Filename D:FLACDick Dale - Unknown Territory (1994) [FLAC]3 - F Groove.wav

Pre-gap length 0:00:02.73

Peak level 98.8 %
Track quality 100.0 %
Test CRC EA6D9D7D
Copy CRC EA6D9D7D
Copy OK

Track 4
Filename D:FLACDick Dale - Unknown Territory (1994) [FLAC]4 - Terra Dicktyl.wav

Pre-gap length 0:00:01.20

Peak level 98.8 %
Track quality 100.0 %
Test CRC E0A8F9EF
Copy CRC E0A8F9EF
Copy OK

Track 5
Filename D:FLACDick Dale - Unknown Territory (1994) [FLAC]5 - Take It Or Leave It.wav

Pre-gap length 0:00:02.26

Peak level 98.8 %
Track quality 100.0 %
Test CRC C23D8192
Copy CRC C23D8192
Copy OK

Track 6
Filename D:FLACDick Dale - Unknown Territory (1994) [FLAC]6 - Ghostriders In The Sky.wav

Pre-gap length 0:00:03.13

Peak level 98.8 %
Track quality 100.0 %
Test CRC 8E28B393
Copy CRC 8E28B393
Copy OK

Track 7
Filename D:FLACDick Dale - Unknown Territory (1994) [FLAC]7 - Fish Taco.wav

Peak level 100.0 %
Track quality 100.0 %
Test CRC A4B4B4D6
Copy CRC A4B4B4D6
Copy OK

Track 8
Filename D:FLACDick Dale - Unknown Territory (1994) [FLAC]8 - California Sun.wav

Pre-gap length 0:00:01.29

Peak level 98.8 %
Track quality 100.0 %
Test CRC 49559297
Copy CRC 49559297
Copy OK

Track 9
Filename D:FLACDick Dale - Unknown Territory (1994) [FLAC]9 - Maria Elena.wav

Pre-gap length 0:00:02.50

Peak level 98.8 %
Track quality 99.9 %
Test CRC EC7A189B
Copy CRC EC7A189B
Copy OK

Track 10
Filename D:FLACDick Dale - Unknown Territory (1994) [FLAC]10 - Hava Negila.wav

Pre-gap length 0:00:02.56

Peak level 98.8 %
Track quality 100.0 %
Test CRC 8FC71631
Copy CRC 8FC71631
Copy OK

Track 11
Filename D:FLACDick Dale - Unknown Territory (1994) [FLAC]11 - The Beast.wav

Pre-gap length 0:00:03.06

Peak level 98.8 %
Track quality 100.0 %
Test CRC 82B9F1E2
Copy CRC 82B9F1E2
Copy OK

Track 12
Filename D:FLACDick Dale - Unknown Territory (1994) [FLAC]12 - Unknown Territory.wav

Pre-gap length 0:00:02.40

Peak level 98.8 %
Track quality 100.0 %
Test CRC E159B225
Copy CRC E159B225
Copy OK

Track 13
Filename D:FLACDick Dale - Unknown Territory (1994) [FLAC]13 - Ring Of Fire.wav

Pre-gap length 0:00:03.49

Peak level 98.8 %
Track quality 100.0 %
Test CRC 208BE53E
Copy CRC 208BE53E
Copy OK

No errors occured


End of status report
http://www.nitroflare.com/view/DF090B934BE6C9A/DlCKD4L3-UT_lggAFL4C.rar
http://www.nitroflare.com/view/867205F9C44D9D7/DlCKD4L3-UT_lggAMPE.rar