Вход в свой аккаунт

Или войдите через соц. сети

DJ Krush/DJ Shadow - A Whim/89.9 Megamix (UK CD5) (1995)


DJ Krush/DJ Shadow - A Whim/89.9 Megamix (UK CD5) (1995)
EAC Rip | FLAC with CUE and log | scans | 141 mb
MP3 CBR 320kbps | RAR | 62 mb
Genre: trip hop, down tempo, instrumental hip-hop, electronica, jungle

A Whim/89.9 Megamix is a UK CD5 by Japanese producer DJ Krush and American producer DJ Shadow. Released in 1995 by Mo' Wax, it features three songs by DJ Krush, with two of them being then-new remixes. The DJ Shadow song is a megamix featuring DJ Krush helping out on turntables.


1. DJ Krush - A Whim
Beats and scratches by DJ Krush

2. DJ Shadow - 89.9 Megamix
Scratches by DJ Shadow and DJ Krush
Additional beats + scratches by DJ Shadow

3. DJ Krush - Yeah (Alex Reece remix)


4. DJ Krush - Dig This Vibe 'The Legal Mix' (Lawyers Smoke It)
DJ Krust + Roni Size Mixes



EAC extraction logfile from 12. December 2006, 22:54 for CD
Various / A Whim

Used drive : LITE-ON DVDRW SOHW-1633S Adapter: 0 ID: 0
Read mode : Secure with NO C2, accurate stream, disable cache
Read offset correction : 12
Overread into Lead-In and Lead-Out : No

Used output format : Internal WAV Routines
44.100 Hz; 16 Bit; Stereo

Other options :
Fill up missing offset samples with silence : Yes
Delete leading and trailing silent blocks : No
Installed external ASPI interface


Track 1
Filename D:FLACDJ Krush, DJ Shadow - A Whim, 89.9 Megamix (UK CD5) (1995) [FLAC]1 - DJ Krush - A Whim.wav

Pre-gap length 0:00:02.42

Peak level 97.7 %
Track quality 100.0 %
Test CRC 62E2BB3D
Copy CRC 62E2BB3D
Copy OK

Track 2
Filename D:FLACDJ Krush, DJ Shadow - A Whim, 89.9 Megamix (UK CD5) (1995) [FLAC]2 - DJ Shadow - 89.9 Megamix.wav

Pre-gap length 0:00:02.33

Peak level 97.7 %
Track quality 100.0 %
Test CRC 4055448C
Copy CRC 4055448C
Copy OK

Track 3
Filename D:FLACDJ Krush, DJ Shadow - A Whim, 89.9 Megamix (UK CD5) (1995) [FLAC]3 - DJ Krush - Yeah (Alex Reece remix).wav

Pre-gap length 0:00:01.90

Peak level 97.7 %
Track quality 99.9 %
Test CRC 8F42556E
Copy CRC 8F42556E
Copy OK

Track 4
Filename D:FLACDJ Krush, DJ Shadow - A Whim, 89.9 Megamix (UK CD5) (1995) [FLAC]4 - DJ Krush - Dig This Vibe 'The Legal Mix' (Lawyers Smoke It).wav

Pre-gap length 0:00:01.86

Peak level 97.6 %
Track quality 100.0 %
Test CRC 9C8627C8
Copy CRC 9C8627C8
Copy OK

No errors occured


End of status report
http://www.nitroflare.com/view/8EA3AF35C410EAB/KRU5H5H4D0W-4WHlMBggM3G4MlX_lggSFL4C.rar
http://www.nitroflare.com/view/389454A04762BB9/KRU5H5H4D0W-4WHlMBggM3G4MlX_lggSMPE.rar