Stray Cats - Sex, Drugs And Rock'N'Roll: The Best Hits (2003)


Stray Cats - Sex, Drugs And Rock'N'Roll: The Best Hits (2003)
EAC Rip | FLAC (Img) + Cue + Log ~ 534 Mb | MP3 CBR320 ~ 197 Mb
Scans Included (JPG, 300 dpi) | RAR 5% Recovery
Rock & Roll, Rockabilly | Island/Artsound Records #724352306428

Stray Cats were an American rockabilly band formed in 1979 by guitarist and vocalist Brian Setzer, double bassist Lee Rocker, and drummer Slim Jim Phantom in the Long Island town of Massapequa, New York. The group had numerous hit singles in the UK, Australia, Canada and the U.S. including "Stray Cat Strut", "(She's) Sexy + 17", "Look at That Cadillac," "I Won't Stand in Your Way", "Bring it Back Again", and "Rock This Town", which the Rock and Roll Hall of Fame has listed as one of the songs that shaped rock and roll. ~ Wiki

The key group of the early-'80s rockabilly revival, the Stray Cats scored several big hits on both sides of the Atlantic thanks to a striking visual style tailor-made for the early days of MTV, as well as genuine musical chops that evoked the best players of rockabilly's original heyday. The Stray Cats were formed by guitarist/vocalist Brian Setzer in the Long Island town of Massapequa, NY, in 1979. At first, Setzer played rockabilly covers in a band called the Tom Cats with his brother, drummer Gary, and bassist Bob Beecher; however, Setzer soon abandoned that group to join up with newly rechristened school friends Lee Rocker (born Leon Drucker) and Slim Jim Phantom (born James McDonnell). However, their retro '50s look and sound didn't go over well around Long Island, and in the summer of 1980, the group headed to England, where a rockabilly revival movement was just beginning to emerge.

After one of their gigs in London, the Stray Cats met producer Dave Edmunds, well known as a roots rock enthusiast for his work with Rockpile, and as a solo artist. Edmunds offered to work with the group, and they entered the studio to record their self-titled debut album, released in England in 1981 on Arista. They were popular right out of the box, scoring three straight hits that year with "Runaway Boys," "Rock This Town," and "Stray Cat Strut." The follow-up, Gonna Ball, wasn't as well received and, stung by the negative reviews, the Stray Cats decided to return to the States and make a go of it. They signed with EMI America and in 1982 released their U.S. debut, Built for Speed, which compiled the highlights from their two British LPs. Helped by extensive airplay on MTV at the height of the anything-goes new wave era, "Rock This Town" and "Stray Cat Strut" both hit the American Top Ten, over a year after their British chart peaks. As a result, Built for Speed was a left-field smash, and the Stray Cats were seen as avatars of retro style. Their second American album, Rant n' Rave with the Stray Cats, appeared in 1983 and produced another Top Ten hit in "(She's) Sexy + 17," as well as a minor Top 40 entry in the doo wop-styled ballad "I Won't Stand in Your Way."

Personality conflicts began to emerge in the ways the individual members handled their newfound success: Phantom married actress (and former Rod Stewart paramour) Britt Ekland, while Setzer made guest appearances with stars like Bob Dylan and Stevie Nicks and became the concert guitarist for Robert Plant's Honeydrippers side project. In late 1984, Setzer broke up the band amid much bad blood. Rocker and Phantom immediately teamed up with guitarist Earl Slick and recorded an album as Phantom, Rocker & Slick, while Setzer waited a couple of years before releasing his roots rock solo debut, The Knife Feels Like Justice. By 1986, fences had apparently been mended enough for the Stray Cats to reconvene in Los Angeles and record the covers-heavy Rock Therapy, which didn't sell that well. The trio returned to their respective post-Stray Cats projects, which both released albums that performed disappointingly. In 1989, they reunited once again for the album Blast Off, which was accompanied by a tour with Stevie Ray Vaughan. No longer with EMI, the Cats entered the studio with Nile Rodgers for the lackluster Let's Go Faster, issued by Liberation in 1990. 1992's Dave Edmunds-produced Choo Choo Hot Fish also attracted little attention, and after another covers album, Original Cool, the group called it quits again. They have since reunited periodically for live performances. Setzer, of course, went on to spearhead the '90s swing revival with his Brian Setzer Orchestra, which performed classic big-band swing and jump blues tunes, as well as Setzer originals.
~ Steve Huey, All Music
| | |

***************


Track List:

01. Stary Cat Strut [03:15]
02. Rumble In Brighton [03:12]
03. Ubangi Stomp [03:09]
04. Jade Idol [03:13]
05. How Long You Wanna Live, Anyway [02:40]
06. Baby Blues Eyes [02:47]
07. (She's) Sexy And 17 [03:11]
08. Fishnet Stockings [02:23]
09. Rock This Town [02:38]
10. Sleepwalk [03:29]
11. Little Miss Prissy [02:59]
12. My One Desire [02:55]
13. Too Hip Gotta Go [02:32]
14. Rebels Rule [03:23]
15. Something's Wrong With My Radio [02:34]
16. Beautiful Blues [03:02]
17. Built For Speed [02:49]
18. 18 Miles To Memphis [02:57]
19. Gonna Ball [03:14]
20. Storm The Embassy [04:06]
21. Double Talkin' Baby [03:02]
22. You Don't Believe Me [02:53]
23. I Won't Stand In Your Way [03:27]
24. Dig Dirty Doggy [02:00]
25. Runaway Boys [02:59]
26. Jeannie, Jeannie, Jeannie [02:18]

Exact Audio Copy V1.0 beta 4 from 7. December 2014

Отчёт EAC об извлечении, выполненном 11. февраля 2016, 20:03

Stray Cats / Sex, Drugs and Rock'n'Roll

Дисковод: ASUS DRW-24F1ST a Adapter: 1 ID: 0

Режим чтения : Достоверность
Использование точного потока : Да
Отключение кэша аудио : Да
Использование указателей C2 : Нет

Коррекция смещения при чтении : 6
Способность читать области Lead-in и Lead-out : Нет
Заполнение пропущенных сэмплов тишиной : Да
Удаление блоков с тишиной в начале и конце : Нет
При вычислениях CRC использовались нулевые сэмплы : Да
Интерфейс : Встроенный Win32-интерфейс для Win NT/2000

Выходной формат : Пользовательский кодировщик
Выбранный битрейт : 128 kBit/s
Качество : Высокий
Добавление ID3-тега : Нет
Утилита сжатия : C:Program FilesExact Audio CopyFlacflac.exe
Дополнительные параметры : -V -8 -T "Date=%year%" -T "Genre=%genre%" %source%


TOC извлечённого CD

Трек | Старт | Длительность | Начальный сектор | Конечный сектор
––––––––––––––––––––––––––––––––––-
1 | 0:00.00 | 3:14.67 | 0 | 14616
2 | 3:14.67 | 3:11.12 | 14617 | 28953
3 | 6:26.04 | 3:08.36 | 28954 | 43089
4 | 9:34.40 | 3:12.38 | 43090 | 57527
5 | 12:47.03 | 2:39.63 | 57528 | 69515
6 | 15:26.66 | 2:46.12 | 69516 | 81977
7 | 18:13.03 | 3:10.36 | 81978 | 96263
8 | 21:23.39 | 2:22.71 | 96264 | 106984
9 | 23:46.35 | 2:37.50 | 106985 | 118809
10 | 26:24.10 | 3:28.39 | 118810 | 134448
11 | 29:52.49 | 2:58.67 | 134449 | 147865
12 | 32:51.41 | 2:54.67 | 147866 | 160982
13 | 35:46.33 | 2:31.55 | 160983 | 172362
14 | 38:18.13 | 3:22.20 | 172363 | 187532
15 | 41:40.33 | 2:33.38 | 187533 | 199045
16 | 44:13.71 | 3:01.19 | 199046 | 212639
17 | 47:15.15 | 2:48.61 | 212640 | 225300
18 | 50:04.01 | 2:56.08 | 225301 | 238508
19 | 53:00.09 | 3:13.03 | 238509 | 252986
20 | 56:13.12 | 4:05.25 | 252987 | 271386
21 | 60:18.37 | 3:01.44 | 271387 | 285005
22 | 63:20.06 | 2:52.22 | 285006 | 297927
23 | 66:12.28 | 3:26.47 | 297928 | 313424
24 | 69:39.00 | 1:59.30 | 313425 | 322379
25 | 71:38.30 | 2:58.13 | 322380 | 335742
26 | 74:36.43 | 2:17.19 | 335743 | 346036


Характеристики диапазона извлечения и сообщения об ошибках

Выбранный диапазон

Имя файла C:UsersErikDesktopНовая папкаStray Cats - Sex, Drugs and Rock'n'Roll.wav

Пиковый уровень 100.0 %
Скорость извлечения 7.9 X
Качество диапазона 99.9 %
CRC теста E4D63AD2
CRC копии E4D63AD2
Копирование… OK

Ошибок не произошло


AccurateRip: сводка

Трек 1 отсутствует в базе данных
Трек 2 отсутствует в базе данных
Трек 3 отсутствует в базе данных
Трек 4 отсутствует в базе данных
Трек 5 отсутствует в базе данных
Трек 6 отсутствует в базе данных
Трек 7 отсутствует в базе данных
Трек 8 отсутствует в базе данных
Трек 9 отсутствует в базе данных
Трек 10 отсутствует в базе данных
Трек 11 отсутствует в базе данных
Трек 12 отсутствует в базе данных
Трек 13 отсутствует в базе данных
Трек 14 отсутствует в базе данных
Трек 15 отсутствует в базе данных
Трек 16 отсутствует в базе данных
Трек 17 отсутствует в базе данных
Трек 18 отсутствует в базе данных
Трек 19 отсутствует в базе данных
Трек 20 отсутствует в базе данных
Трек 21 отсутствует в базе данных
Трек 22 отсутствует в базе данных
Трек 23 отсутствует в базе данных
Трек 24 отсутствует в базе данных
Трек 25 отсутствует в базе данных
Трек 26 отсутствует в базе данных

Ни одного трека нет в базе AccurateRip

Конец отчёта

–– CUETools DB Plugin V2.1.4

[CTDB TOCID: yiTjWIqOq5l1U8wL6vvebtang8M-] disk not present in database
Submit result: yiTjWIqOq5l1U8wL6vvebtang8M- has been uploaded


==== Контрольная сумма отчёта CD1426963E09AC0E886E2DD144A436297DFB67AF6D27AA83D41A98C01FDA4522 ====

foobar2000 1.2.6 / Dynamic Range Meter 1.1.1
log date: 2016-02-19 01:29:25

––––––––––––––––––––––––––––––––––––––––
Analyzed: Stray Cats / Sex, Drugs and Rock'n'Roll
––––––––––––––––––––––––––––––––––––––––

DR Peak RMS Duration Track
––––––––––––––––––––––––––––––––––––––––
DR13 0.00 dB -16.70 dB 3:15 01-Stary Cat Strut
DR13 0.00 dB -15.47 dB 3:11 02-Rumble In Brighton
DR13 0.00 dB -15.14 dB 3:08 03-Ubangi Stomp
DR12 0.00 dB -12.85 dB 3:13 04-Jade Idol
DR12 0.00 dB -13.72 dB 2:40 05-How Long You Wanna Live, Anyway
DR12 0.00 dB -13.54 dB 2:46 06-Baby Blues Eyes
DR12 0.00 dB -13.90 dB 3:10 07-(She's) Sexy And 17
DR14 0.00 dB -15.95 dB 2:23 08-Fishnet Stockings
DR13 0.00 dB -14.24 dB 2:38 09-Rock This Town
DR11 0.00 dB -12.73 dB 3:29 10-Sleepwalk
DR12 0.00 dB -13.65 dB 2:59 11-Little Miss Prissy
DR13 0.00 dB -15.10 dB 2:55 12-My One Desire
DR12 0.00 dB -14.44 dB 2:32 13-Too Hip Gotta Go
DR12 0.00 dB -14.77 dB 3:22 14-Rebels Rule
DR12 0.00 dB -15.07 dB 2:34 15-Something's Wrong With My Radio
DR10 0.00 dB -11.17 dB 3:01 16-Beautiful Blues
DR12 0.00 dB -13.81 dB 2:49 17-Built For Speed
DR12 0.00 dB -13.41 dB 2:56 18-18 Miles To Memphis
DR13 0.00 dB -14.94 dB 3:13 19-Gonna Ball
DR13 0.00 dB -14.90 dB 4:05 20-Storm The Embassy
DR13 0.00 dB -15.01 dB 3:02 21-Double Talkin' Baby
DR12 0.00 dB -14.69 dB 2:52 22-You Don't Believe Me
DR10 0.00 dB -12.81 dB 3:27 23-I Won't Stand In Your Way
DR11 0.00 dB -12.51 dB 1:59 24-Dig Dirty Doggy
DR12 0.00 dB -13.93 dB 2:58 25-Runaway Boys
DR12 0.00 dB -13.91 dB 2:17 26-Jeannie, Jeannie, Jeannie
––––––––––––––––––––––––––––––––––––––––

Number of tracks: 26
Official DR value: DR12

Samplerate: 44100 Hz
Channels: 2
Bits per sample: 16
Bitrate: 904 kbps
Codec: FLAC
================================================================================

[CUETools log; Date: 19.02.2016 1:29:28; Version: 2.1.5]
[CTDB TOCID: yiTjWIqOq5l1U8wL6vvebtang8M-] found.
Track | CTDB Status
1 | (1/1) Accurately ripped
2 | (1/1) Accurately ripped
3 | (1/1) Accurately ripped
4 | (1/1) Accurately ripped
5 | (1/1) Accurately ripped
6 | (1/1) Accurately ripped
7 | (1/1) Accurately ripped
8 | (1/1) Accurately ripped
9 | (1/1) Accurately ripped
10 | (1/1) Accurately ripped
11 | (1/1) Accurately ripped
12 | (1/1) Accurately ripped
13 | (1/1) Accurately ripped
14 | (1/1) Accurately ripped
15 | (1/1) Accurately ripped
16 | (1/1) Accurately ripped
17 | (1/1) Accurately ripped
18 | (1/1) Accurately ripped
19 | (1/1) Accurately ripped
20 | (1/1) Accurately ripped
21 | (1/1) Accurately ripped
22 | (1/1) Accurately ripped
23 | (1/1) Accurately ripped
24 | (1/1) Accurately ripped
25 | (1/1) Accurately ripped
26 | (1/1) Accurately ripped
[AccurateRip ID: 00480aad-053e8120-9312051a] disk not present in database.

Track Peak [ CRC32 ] [W/O NULL] [ LOG ]
– 100,0 [E4D63AD2] [B100EC33] CRC32
01 100,0 [050CEBC2] [DC358581]
02 99,9 [7B14B8ED] [57D12D79]
03 100,0 [B8441CC6] [C8406AF2]
04 99,9 [83985A59] [5C74B962]
05 99,9 [C55B0BB3] [CD1449F7]
06 100,0 [86029950] [E6D3D391]
07 99,9 [E673BBCD] [9BAE7495]
08 99,9 [1CB15BC9] [4EA6690E]
09 99,9 [30E7B704] [025A8596]
10 100,0 [475118B1] [1C745EE6]
11 100,0 [609F0166] [59DEC297]
12 100,0 [3A3D54C6] [AEB92522]
13 99,9 [55B69020] [2423F37D]
14 99,9 [7432CE84] [5B8BD801]
15 99,9 [98A27FDD] [72C3E068]
16 100,0 [E52A3DF7] [B4845AA8]
17 100,0 [EEC9506A] [62354330]
18 99,9 [50D9BABB] [D83FC1CD]
19 99,9 [5A5180BC] [E291B28A]
20 99,9 [A8F3D878] [9CEDF19F]
21 100,0 [96EC4025] [59474935]
22 100,0 [E9D9A7FE] [1F69C320]
23 100,0 [DFCFD474] [C0467B2B]
24 99,9 [6B646C68] [99D9B767]
25 100,0 [2C849060] [B5135A85]
26 100,0 [B6990C4E] [1318B67C]



See also:



All thanks go to Erik



No mirrors, please!

Download:
Salefiles: | |

Turbobit: | |