Karda Estra - 5 Studio Albums (2001-2009)


Karda Estra - 5 Studio Albums (2001-2009)
EAC Rip | FLAC (tracks/image+.cue+log) - 1,1 GB | MP3 CBR 320 kbps (LAME 3.93) - 504 MB | Covers - 142 MB
Genre: Progressive Rock | RAR 3% Rec. | Label: Cyclops Records

Karda Estra is an very competent group of British musicians who from from the late 90's to the date, create music that combines the dark spirit of the Eastern Europe ethnic sound (present in the use of Bazouki and Rastrophone) with the skills of the most pristine Symphonic Prog you can imagine expressed in complex and well developed orchestral arrangements that create an atmosphere of mystery and obscurity enhanced by the haunting chorals.
Karda Estra is the brainchild of the multi instrumentalist and composer Richard Willeman who is obviously obsessed with the 1800's Gothic Revival and created this Neo Classical - Progressive project to exploit that dark mood that most Progressive Rock followers love so much. Their main inspiration is so wide that goes from Romanian music from the Carpathian Mountains to Steve Hackett with who he shares that obsession for obscurity.


Karda Estra - Eve (2001)
EAC Rip | FLAC (tracks+.cue+log) - 196 MB | MP3 CBR 320 kbps (LAME 3.93) - 101 MB | Covers - 44 MB
Genre: Progressive Rock | RAR 3% Rec. | Label: Cyclops Records (CYCL 104)

Tracklist:
01. An ordinary Mortal
02. Andraiad
03. The Pale Ray
04. Super Electrical
05. Eve
06. Sparks That Flash and Fall
07. Thoughts and Silences

Total time: 42:35

Exact Audio Copy V1.0 beta 3 from 29. August 2011

EAC extraction logfile from 17. August 2013, 10:21

Karda Estra / Eve

Used drive : ASUS DRW-1608P3S Adapter: 1 ID: 1

Read mode : Secure
Utilize accurate stream : Yes
Defeat audio cache : Yes
Make use of C2 pointers : No

Read offset correction : 48
Overread into Lead-In and Lead-Out : No
Fill up missing offset samples with silence : Yes
Delete leading and trailing silent blocks : No
Null samples used in CRC calculations : Yes
Used interface : Installed external ASPI interface
Gap handling : Appended to previous track

Used output format : User Defined Encoder
Selected bitrate : 128 kBit/s
Quality : High
Add ID3 tag : No
Command line compressor : C:Program FilesExact Audio CopyFlacflac.exe
Additional command line options : -V -8 -T "Date=%year%" -T "Genre=%genre%" %source%


TOC of the extracted CD

Track | Start | Length | Start sector | End sector
––––––––––––––––––––––––––––-
1 | 0:00.00 | 4:33.65 | 0 | 20539
2 | 4:33.65 | 8:27.49 | 20540 | 58613
3 | 13:01.39 | 3:28.49 | 58614 | 74262
4 | 16:30.13 | 4:40.54 | 74263 | 95316
5 | 21:10.67 | 7:37.32 | 95317 | 129623
6 | 28:48.24 | 10:23.47 | 129624 | 176395
7 | 39:11.71 | 3:23.70 | 176396 | 191690


Track 1

Filename E:bzp01Karda Estra - Eve (2001) [FLAC] {CYCL104}1 - An ordinary mortal.wav

Pre-gap length 0:00:02.00

Peak level 92.4 %
Extraction speed 3.9 X
Track quality 99.9 %
Test CRC A4E9A2A9
Copy CRC A4E9A2A9
Accurately ripped (confidence 2) [8D9470AE] (AR v2)
Copy OK

Track 2

Filename E:bzp01Karda Estra - Eve (2001) [FLAC] {CYCL104}2 - Andraiad.wav

Peak level 98.0 %
Extraction speed 5.4 X
Track quality 100.0 %
Test CRC E3D8677A
Copy CRC E3D8677A
Accurately ripped (confidence 2) [DDFD5515] (AR v2)
Copy OK

Track 3

Filename E:bzp01Karda Estra - Eve (2001) [FLAC] {CYCL104}3 - The pale ray.wav

Peak level 78.4 %
Extraction speed 5.4 X
Track quality 100.0 %
Test CRC F42EE780
Copy CRC F42EE780
Accurately ripped (confidence 2) [54004CBD] (AR v2)
Copy OK

Track 4

Filename E:bzp01Karda Estra - Eve (2001) [FLAC] {CYCL104}4 - Super electrical.wav

Peak level 100.0 %
Extraction speed 6.0 X
Track quality 100.0 %
Test CRC A93F1ECB
Copy CRC A93F1ECB
Accurately ripped (confidence 2) [3CCE237D] (AR v2)
Copy OK

Track 5

Filename E:bzp01Karda Estra - Eve (2001) [FLAC] {CYCL104}5 - Eve.wav

Peak level 100.0 %
Extraction speed 6.8 X
Track quality 100.0 %
Test CRC 6B52834F
Copy CRC 6B52834F
Accurately ripped (confidence 2) [F2FEC610] (AR v2)
Copy OK

Track 6

Filename E:bzp01Karda Estra - Eve (2001) [FLAC] {CYCL104}6 - Sparks that flash and fall….wav

Peak level 100.0 %
Extraction speed 7.6 X
Track quality 100.0 %
Test CRC F1667B2E
Copy CRC F1667B2E
Accurately ripped (confidence 2) [DF467C46] (AR v2)
Copy OK

Track 7

Filename E:bzp01Karda Estra - Eve (2001) [FLAC] {CYCL104}7 - Thoughts and silences.wav

Peak level 88.2 %
Extraction speed 7.1 X
Track quality 100.0 %
Test CRC 6061165D
Copy CRC 6061165D
Accurately ripped (confidence 2) [070DABE9] (AR v2)
Copy OK


All tracks accurately ripped

No errors occurred

End of status report

==== Log checksum 36ECFA52E5889D47277A9A26DD3D02E38CE0DF6BFF1A16CF7996933984016D7D ====

[CUETools log; Date: 19.02.2016 16:53:45; Version: 2.1.4]
[CTDB TOCID: t_8NsHSyhrei3Jmge.4jH3yogrE-] found.
Track | CTDB Status
1 | (2/2) Accurately ripped
2 | (2/2) Accurately ripped
3 | (2/2) Accurately ripped
4 | (2/2) Accurately ripped
5 | (2/2) Accurately ripped
6 | (2/2) Accurately ripped
7 | (2/2) Accurately ripped
[AccurateRip ID: 000b63cd-0045391c-5a09fb07] found.
Track [ CRC | V2 ] Status
01 [f53d4c19|8d9470ae] (0+4/4) Accurately ripped
02 [bd4d17d5|ddfd5515] (0+4/4) Accurately ripped
03 [4af01e8b|54004cbd] (0+4/4) Accurately ripped
04 [556bb4b9|3cce237d] (0+4/4) Accurately ripped
05 [3d579c0a|f2fec610] (0+4/4) Accurately ripped
06 [c950388f|df467c46] (0+4/4) Accurately ripped
07 [6181ef2d|070dabe9] (0+4/4) Accurately ripped
Offsetted by -169:
01 [fbb6aad5] (0/4) No match (V2 was not tested)
02 [7d1b9682] (0/4) No match (V2 was not tested)
03 [5e6c1421] (0/4) No match (V2 was not tested)
04 [2071455e] (0/4) No match (V2 was not tested)
05 [cb7881a7] (0/4) No match (V2 was not tested)
06 [51b86080] (0/4) No match (V2 was not tested)
07 [6f61c6fd] (0/4) No match (V2 was not tested)

Track Peak [ CRC32 ] [W/O NULL] [ LOG ]
– 100,0 [FC17F905] [57432A06]
01 92,4 [A4E9A2A9] [F5FE03BF] CRC32
02 98,0 [E3D8677A] [A13B73CC] CRC32
03 78,4 [F42EE780] [9B21B254] CRC32
04 100,0 [A93F1ECB] [AE276E5E] CRC32
05 100,0 [6B52834F] [D4E240BF] CRC32
06 100,0 [F1667B2E] [0EA472BD] CRC32
07 88,2 [6061165D] [5CD8C199] CRC32


Karda Estra - Voivode Dracula (2004)
EAC Rip | FLAC (image+.cue+log) - 224 MB | MP3 CBR 320 kbps (LAME 3.93) - 102 MB | Covers - 15 MB
Genre: Progressive Rock | RAR 3% Rec. | Label: Cyclops Records (CYCL 143)

Tracklist:
01. Voivode Dracula
02. Lucy - Festina Lente
03. The Land Beyond The Forest
04. Mina
05. Kisses For Us All

Total time: 43:29

Exact Audio Copy V1.0 beta 3 from 29. August 2011

Отчёт EAC об извлечении, выполненном 7. июля 2012, 16:56

Karda Estra / Voivode Dracula

Дисковод: TSSTcorpCDDVDW TS-L633J Adapter: 0 ID: 1

Режим чтения : Достоверность
Использование точного потока : Да
Отключение кэша аудио : Да
Использование указателей C2 : Нет

Коррекция смещения при чтении : 6
Способность читать области Lead-in и Lead-out : Нет
Заполнение пропущенных сэмплов тишиной : Да
Удаление блоков с тишиной в начале и конце : Нет
При вычислениях CRC использовались нулевые сэмплы : Да
Интерфейс : Установленный внешний ASPI-интерфейс

Выходной формат : Пользовательский кодировщик
Выбранный битрейт : 128 kBit/s
Качество : Высокий
Добавление ID3-тега : Нет
Утилита сжатия : C:Program FilesExact Audio CopyFLACFLAC.EXE
Дополнительные параметры : -6 -V -T "ARTIST=%artist%" -T "TITLE=%title%" -T "ALBUM=%albumtitle%" -T "DATE=%year%" -T "TRACKNUMBER=%tracknr%" -T "GENRE=%genre%" -T "COMMENT=%comment%" -T "BAND=%albuminterpret%" -T "ALBUMARTIST=%albuminterpret%" -T "COMPOSER=%composer%" %haslyrics%–tag-from-file=LYRICS="%lyricsfile%"%haslyrics% -T "DISCNUMBER=%cdnumber%" -T "TOTALDISCS=%totalcds%" -T "TOTALTRACKS=%numtracks%" %hascover%–picture="%coverfile%"%hascover% %source% -o %dest%


TOC извлечённого CD

Трек | Старт | Длительность | Начальный сектор | Конечный сектор
––––––––––––––––––––––––––––––––––-
1 | 0:00.00 | 9:14.66 | 0 | 41615
2 | 9:14.66 | 6:36.42 | 41616 | 71357
3 | 15:51.33 | 6:07.44 | 71358 | 98926
4 | 21:59.02 | 8:12.27 | 98927 | 135853
5 | 30:11.29 | 13:17.72 | 135854 | 195700


Характеристики диапазона извлечения и сообщения об ошибках

Выбранный диапазон

Имя файла C:KARDA ESTRAKarda Estra - Voivode Dracula.wav

Пиковый уровень 100.0 %
Скорость извлечения 2.7 X
Качество диапазона 100.0 %
CRC теста B623DCDE
CRC копии B623DCDE
Копирование… OK

Ошибок не произошло


AccurateRip: сводка

Трек 1 отсутствует в базе данных
Трек 2 отсутствует в базе данных
Трек 3 отсутствует в базе данных
Трек 4 отсутствует в базе данных
Трек 5 отсутствует в базе данных

Ни одного трека нет в базе AccurateRip

Конец отчёта

–– CUETools DB Plugin V2.1.3

[CTDB TOCID: UtbReQUBn8Ag.JVV1zntVUTDPP4-] found, Submit result: UtbReQUBn8Ag.JVV1zntVUTDPP4- has been confirmed
[448b6485] (2/2) Accurately ripped


==== Контрольная сумма отчёта BF8370E39D53393B290E70F718D45EDC69764E719DF37DCD27DE5A25B942B251 ====

[CUETools log; Date: 19.02.2016 16:52:29; Version: 2.1.4]
[CTDB TOCID: UtbReQUBn8Ag.JVV1zntVUTDPP4-] found.
Track | CTDB Status
1 | (3/3) Accurately ripped
2 | (3/3) Accurately ripped
3 | (3/3) Accurately ripped
4 | (3/3) Accurately ripped
5 | (3/3) Accurately ripped
[AccurateRip ID: 00084ae0-0026db3b-370a3105] found.
Track [ CRC | V2 ] Status
01 [c110e649|d5bb062b] (2+0/2) Accurately ripped
02 [cdda769c|e5826fdc] (2+0/2) Accurately ripped
03 [f6e0abd6|826661c7] (2+0/2) Accurately ripped
04 [4e731335|feacaf30] (2+0/2) Accurately ripped
05 [f3df83b4|4ce01d22] (2+0/2) Accurately ripped

Track Peak [ CRC32 ] [W/O NULL] [ LOG ]
– 100,0 [B623DCDE] [3B1E6488] CRC32
01 100,0 [86886AB6] [D8E7A5B4]
02 100,0 [226CB8E0] [CCD90310]
03 100,0 [D6B99358] [77CA40DD]
04 100,0 [EAAEFA60] [93BDE589]
05 100,0 [CF277A0C] [5F4E93FE]


Karda Estra - The Age of Science And Enlightenment (2006)
EAC Rip | FLAC (image+.cue+log) - 224 MB | MP3 CBR 320 kbps (LAME 3.93) - 102 MB | Covers - 9 MB
Genre: Progressive Rock | RAR 3% Rec. | Label: Cyclops Records (CYCL 158)

Tracklist:
01. Talos
02. Carmilla
03. Am I Dreaming You? Are You Dreaming Me?
04. The Age of Science and Enlightenment
The Return of John Deth:
05. i) The Red Room
06. ii) Bones in the Moonlight
07. iii) Nocturne Macabre
08. Second Star

Total time: 43:27

Exact Audio Copy V1.0 beta 3 from 29. August 2011

Отчёт EAC об извлечении, выполненном 24. декабря 2011, 20:09

Karda Estra / The Age of Science and Enlightenment

Дисковод: TSSTcorpCDDVDW TS-L633J Adapter: 0 ID: 1

Режим чтения : Достоверность
Использование точного потока : Да
Отключение кэша аудио : Да
Использование указателей C2 : Нет

Коррекция смещения при чтении : 6
Способность читать области Lead-in и Lead-out : Нет
Заполнение пропущенных сэмплов тишиной : Да
Удаление блоков с тишиной в начале и конце : Нет
При вычислениях CRC использовались нулевые сэмплы : Да
Интерфейс : Установленный внешний ASPI-интерфейс

Выходной формат : Пользовательский кодировщик
Выбранный битрейт : 128 kBit/s
Качество : Высокий
Добавление ID3-тега : Нет
Утилита сжатия : C:Program FilesExact Audio CopyFLACFLAC.EXE
Дополнительные параметры : -6 -V -T "ARTIST=%artist%" -T "TITLE=%title%" -T "ALBUM=%albumtitle%" -T "DATE=%year%" -T "TRACKNUMBER=%tracknr%" -T "GENRE=%genre%" -T "COMMENT=%comment%" -T "BAND=%albuminterpret%" -T "ALBUMARTIST=%albuminterpret%" -T "COMPOSER=%composer%" %haslyrics%–tag-from-file=LYRICS="%lyricsfile%"%haslyrics% -T "DISCNUMBER=%cdnumber%" -T "TOTALDISCS=%totalcds%" -T "TOTALTRACKS=%numtracks%" %hascover%–picture="%coverfile%"%hascover% %source% -o %dest%


TOC извлечённого CD

Трек | Старт | Длительность | Начальный сектор | Конечный сектор
––––––––––––––––––––––––––––––––––-
1 | 0:00.00 | 4:27.31 | 0 | 20055
2 | 4:27.31 | 4:30.66 | 20056 | 40371
3 | 8:58.22 | 6:03.08 | 40372 | 67604
4 | 15:01.30 | 4:52.40 | 67605 | 89544
5 | 19:53.70 | 5:38.41 | 89545 | 114935
6 | 25:32.36 | 8:12.56 | 114936 | 151891
7 | 33:45.17 | 2:05.05 | 151892 | 161271
8 | 35:50.22 | 7:36.54 | 161272 | 195525


Характеристики диапазона извлечения и сообщения об ошибках

Выбранный диапазон

Имя файла C:KARDA ESTRA 2006Karda Estra - The Age of Science and Enlightenment.wav

Пиковый уровень 100.0 %
Скорость извлечения 3.0 X
Качество диапазона 100.0 %
CRC теста E85BC722
CRC копии E85BC722
Копирование… OK

Ошибок не произошло


AccurateRip: сводка

Трек 1 отсутствует в базе данных
Трек 2 отсутствует в базе данных
Трек 3 отсутствует в базе данных
Трек 4 отсутствует в базе данных
Трек 5 отсутствует в базе данных
Трек 6 отсутствует в базе данных
Трек 7 отсутствует в базе данных
Трек 8 отсутствует в базе данных

Ни одного трека нет в базе AccurateRip

Конец отчёта

–– CUETools DB Plugin V2.1.3

[CTDB TOCID: tUXp4.UXM5AEIMdDacc1IeRHReE-] disk not present in database, Submit result: tUXp4.UXM5AEIMdDacc1IeRHReE- has been uploaded


==== Контрольная сумма отчёта E134721CCED948DDAFCE498ED063E8CEEB6A0D96BBCBB18E1CFDF1A4BCD632BB ====

[CUETools log; Date: 19.02.2016 16:57:12; Version: 2.1.4]
[CTDB TOCID: tUXp4.UXM5AEIMdDacc1IeRHReE-] found.
Track | CTDB Status
1 | (1/1) Accurately ripped
2 | (1/1) Accurately ripped
3 | (1/1) Accurately ripped
4 | (1/1) Accurately ripped
5 | (1/1) Accurately ripped
6 | (1/1) Accurately ripped
7 | (1/1) Accurately ripped
8 | (1/1) Accurately ripped
[AccurateRip ID: 000cd5f4-0056b3e0-5a0a2f08] found.
Track [ CRC | V2 ] Status
01 [84e105d5|acbdaa38] (0+2/2) Accurately ripped
02 [11ee77aa|5d6b3ff1] (0+2/2) Accurately ripped
03 [2cfc781a|d823b956] (0+2/2) Accurately ripped
04 [874c25db|83b82633] (0+2/2) Accurately ripped
05 [e0b2a2a2|5bf56db8] (0+2/2) Accurately ripped
06 [a5bf0ccb|7f47e32b] (0+2/2) Accurately ripped
07 [99db8688|4643ef1b] (0+2/2) Accurately ripped
08 [fde03e98|80e32b7f] (0+2/2) Accurately ripped

Track Peak [ CRC32 ] [W/O NULL] [ LOG ]
– 100,0 [E85BC722] [9A2326AE] CRC32
01 97,9 [F1930191] [FA143A35]
02 100,0 [E90EF3CC] [50B70F32]
03 97,1 [9B53FFD0] [C683A1C7]
04 94,3 [46B60971] [40937319]
05 100,0 [97191902] [92AFBBE9]
06 100,0 [1EB7C8A0] [1BB75065]
07 85,8 [370606B7] [03887574]
08 100,0 [016AD544] [BBBFA445]


Karda Estra - The Last Of The Libertine (2007)
EAC Rip | FLAC (tracks+.cue+log) - 235 MB | MP3 CBR 320 kbps (LAME 3.93) - 98 MB | Covers - 37 MB
Genre: Progressive Rock | RAR 3% Rec. | Label: Cyclops Records (CYCL 163)

Tracklist:
01. Paper Cuts
02. Life Drawing
03. Atom of Warmth
04. Morning Wraiths
05. Halcyon Years
06. The Last of the Libertine
07. Black Sun
08. Terra Nova

Total time: 41:42

Exact Audio Copy V1.0 beta 3 from 29. August 2011

EAC extraction logfile from 17. August 2013, 11:31

Karda Estra / The Last Of The Libertine

Used drive : ASUS DRW-1608P3S Adapter: 1 ID: 1

Read mode : Secure
Utilize accurate stream : Yes
Defeat audio cache : Yes
Make use of C2 pointers : No

Read offset correction : 48
Overread into Lead-In and Lead-Out : No
Fill up missing offset samples with silence : Yes
Delete leading and trailing silent blocks : No
Null samples used in CRC calculations : Yes
Used interface : Installed external ASPI interface
Gap handling : Appended to previous track

Used output format : User Defined Encoder
Selected bitrate : 128 kBit/s
Quality : High
Add ID3 tag : No
Command line compressor : C:Program FilesExact Audio CopyFlacflac.exe
Additional command line options : -V -8 -T "Date=%year%" -T "Genre=%genre%" %source%


TOC of the extracted CD

Track | Start | Length | Start sector | End sector
––––––––––––––––––––––––––––-
1 | 0:00.00 | 2:38.48 | 0 | 11897
2 | 2:38.48 | 4:44.30 | 11898 | 33227
3 | 7:23.03 | 5:25.49 | 33228 | 57651
4 | 12:48.52 | 5:58.27 | 57652 | 84528
5 | 18:47.04 | 5:28.13 | 84529 | 109141
6 | 24:15.17 | 5:44.33 | 109142 | 134974
7 | 29:59.50 | 6:23.07 | 134975 | 163706
8 | 36:22.57 | 5:19.39 | 163707 | 187670


Track 1

Filename E:bzp01Karda Estra - The Last of the Libertine (2007) [FLAC] {CYCL163}1 - Paper Cuts.wav

Pre-gap length 0:00:02.00

Peak level 100.0 %
Extraction speed 3.5 X
Track quality 100.0 %
Test CRC D1C5D6BB
Copy CRC D1C5D6BB
Accurately ripped (confidence 1) [F226AA5D] (AR v2)
Copy OK

Track 2

Filename E:bzp01Karda Estra - The Last of the Libertine (2007) [FLAC] {CYCL163}2 - Life Drawing.wav

Peak level 100.0 %
Extraction speed 4.7 X
Track quality 100.0 %
Test CRC F958ED72
Copy CRC F958ED72
Accurately ripped (confidence 1) [C4976621] (AR v2)
Copy OK

Track 3

Filename E:bzp01Karda Estra - The Last of the Libertine (2007) [FLAC] {CYCL163}3 - Atom Of Warmth.wav

Peak level 100.0 %
Extraction speed 5.3 X
Track quality 100.0 %
Test CRC 8C32C590
Copy CRC 8C32C590
Accurately ripped (confidence 1) [2C783525] (AR v2)
Copy OK

Track 4

Filename E:bzp01Karda Estra - The Last of the Libertine (2007) [FLAC] {CYCL163}4 - Morning Wraiths.wav

Peak level 100.0 %
Extraction speed 5.9 X
Track quality 100.0 %
Test CRC 7E58BCC8
Copy CRC 7E58BCC8
Accurately ripped (confidence 1) [D886B9B8] (AR v2)
Copy OK

Track 5

Filename E:bzp01Karda Estra - The Last of the Libertine (2007) [FLAC] {CYCL163}5 - Halcyon Years.wav

Peak level 100.0 %
Extraction speed 6.3 X
Track quality 100.0 %
Test CRC 98C36C28
Copy CRC 98C36C28
Accurately ripped (confidence 1) [E5A3FB0B] (AR v2)
Copy OK

Track 6

Filename E:bzp01Karda Estra - The Last of the Libertine (2007) [FLAC] {CYCL163}6 - The Last Of The Libertine.wav

Peak level 94.3 %
Extraction speed 6.7 X
Track quality 100.0 %
Test CRC 9F72761E
Copy CRC 9F72761E
Accurately ripped (confidence 1) [FC7DED27] (AR v2)
Copy OK

Track 7

Filename E:bzp01Karda Estra - The Last of the Libertine (2007) [FLAC] {CYCL163}7 - Black Sun.wav

Peak level 100.0 %
Extraction speed 6.2 X
Track quality 99.9 %
Test CRC 71C7B48C
Copy CRC 71C7B48C
Accurately ripped (confidence 1) [90C896BD] (AR v2)
Copy OK

Track 8

Filename E:bzp01Karda Estra - The Last of the Libertine (2007) [FLAC] {CYCL163}8 - Terra Nova.wav

Peak level 100.0 %
Extraction speed 7.4 X
Track quality 100.0 %
Test CRC B379D182
Copy CRC B379D182
Accurately ripped (confidence 1) [0251D843] (AR v2)
Copy OK


All tracks accurately ripped

No errors occurred

End of status report

==== Log checksum 1E3455A449305F1A99C3D5587EE927426F574BB46775D852F12B2DB7F9350349 ====

[CUETools log; Date: 19.02.2016 16:54:59; Version: 2.1.4]
[CTDB TOCID: wy8EN0QiwboEWvk75tpXANy8Sz8-] disk not present in database.
[AccurateRip ID: 000bf1d2-00520482-5b09c608] found.
Track [ CRC | V2 ] Status
01 [230c1118|f226aa5d] (0+3/3) Accurately ripped
02 [d898b052|c4976621] (0+3/3) Accurately ripped
03 [9a48ff21|2c783525] (0+3/3) Accurately ripped
04 [6611afa1|d886b9b8] (0+3/3) Accurately ripped
05 [5c3ddf2c|e5a3fb0b] (0+3/3) Accurately ripped
06 [a006b702|fc7ded27] (0+3/3) Accurately ripped
07 [bb0bf436|90c896bd] (0+3/3) Accurately ripped
08 [d5ba4a36|0251d843] (0+3/3) Accurately ripped

Track Peak [ CRC32 ] [W/O NULL] [ LOG ]
– 100,0 [89E20E9E] [C40954CD]
01 100,0 [D1C5D6BB] [C06E3D19] CRC32
02 100,0 [F958ED72] [F7BA742C] CRC32
03 100,0 [8C32C590] [5627DFE0] CRC32
04 100,0 [7E58BCC8] [3C953B07] CRC32
05 100,0 [98C36C28] [2E25CA96] CRC32
06 94,3 [9F72761E] [906166FC] CRC32
07 99,9 [71C7B48C] [614CDBA8] CRC32
08 100,0 [B379D182] [8779C184] CRC32


Karda Estra - Weird Tales (2009)
EAC Rip | FLAC (tracks+.cue+log) - 225 MB | MP3 CBR 320 kbps (LAME 3.93) - 101 MB | Covers - 37 MB
Genre: Progressive Rock | RAR 3% Rec. | Label: Cyclops Records (CYCL 171)

Tracklist:
01. The Whitstable Host
02. Skulls In The Stars
03. The Eye Of Silence
04. Green Dog Trumpet
05. The White Rose
06. The Atom Age Sense Of Impermanence
07. Island Universes
08. There Is No Finished World

Total time: 42:49

Exact Audio Copy V1.0 beta 3 from 29. August 2011

EAC extraction logfile from 17. August 2013, 11:54

Karda Estra / Weird Tales

Used drive : ASUS DRW-1608P3S Adapter: 1 ID: 1

Read mode : Secure
Utilize accurate stream : Yes
Defeat audio cache : Yes
Make use of C2 pointers : No

Read offset correction : 48
Overread into Lead-In and Lead-Out : No
Fill up missing offset samples with silence : Yes
Delete leading and trailing silent blocks : No
Null samples used in CRC calculations : Yes
Used interface : Installed external ASPI interface
Gap handling : Appended to previous track

Used output format : User Defined Encoder
Selected bitrate : 128 kBit/s
Quality : High
Add ID3 tag : No
Command line compressor : C:Program FilesExact Audio CopyFlacflac.exe
Additional command line options : -V -8 -T "Date=%year%" -T "Genre=%genre%" %source%


TOC of the extracted CD

Track | Start | Length | Start sector | End sector
––––––––––––––––––––––––––––-
1 | 0:00.00 | 3:47.67 | 0 | 17091
2 | 3:47.67 | 7:15.69 | 17092 | 49785
3 | 11:03.61 | 3:59.63 | 49786 | 67773
4 | 15:03.49 | 5:19.66 | 67774 | 91764
5 | 20:23.40 | 4:58.03 | 91765 | 114117
6 | 25:21.43 | 5:23.36 | 114118 | 138378
7 | 30:45.04 | 3:51.44 | 138379 | 155747
8 | 34:36.48 | 8:11.73 | 155748 | 192645


Track 1

Filename E:bzp01Karda Estra - Weird Tales (2009) [FLAC] {CYCL171}1 - The Whitestable Host.wav

Pre-gap length 0:00:02.00

Peak level 100.0 %
Extraction speed 4.1 X
Track quality 100.0 %
Test CRC 351CBD35
Copy CRC 351CBD35
Accurately ripped (confidence 1) [DC9D8C6B] (AR v2)
Copy OK

Track 2

Filename E:bzp01Karda Estra - Weird Tales (2009) [FLAC] {CYCL171}2 - Skulls In The Stars.wav

Peak level 83.0 %
Extraction speed 4.6 X
Track quality 99.9 %
Test CRC 47DAF9CD
Copy CRC 47DAF9CD
Accurately ripped (confidence 1) [A4890DDB] (AR v2)
Copy OK

Track 3

Filename E:bzp01Karda Estra - Weird Tales (2009) [FLAC] {CYCL171}3 - The Eye Of Silence.wav

Peak level 100.0 %
Extraction speed 5.2 X
Track quality 100.0 %
Test CRC ED36DD65
Copy CRC ED36DD65
Accurately ripped (confidence 1) [E6496B4C] (AR v2)
Copy OK

Track 4

Filename E:bzp01Karda Estra - Weird Tales (2009) [FLAC] {CYCL171}4 - Green Dog Trumpet.wav

Peak level 100.0 %
Extraction speed 6.0 X
Track quality 100.0 %
Test CRC D1F38062
Copy CRC D1F38062
Accurately ripped (confidence 1) [04DE53C9] (AR v2)
Copy OK

Track 5

Filename E:bzp01Karda Estra - Weird Tales (2009) [FLAC] {CYCL171}5 - The White Rose.wav

Peak level 100.0 %
Extraction speed 6.3 X
Track quality 100.0 %
Test CRC 8FE5F7D4
Copy CRC 8FE5F7D4
Accurately ripped (confidence 1) [63076632] (AR v2)
Copy OK

Track 6

Filename E:bzp01Karda Estra - Weird Tales (2009) [FLAC] {CYCL171}6 - The Atom Age Sense Of Impermanence.wav

Peak level 100.0 %
Extraction speed 6.6 X
Track quality 100.0 %
Test CRC ED25C9B2
Copy CRC ED25C9B2
Accurately ripped (confidence 1) [4973AE30] (AR v2)
Copy OK

Track 7

Filename E:bzp01Karda Estra - Weird Tales (2009) [FLAC] {CYCL171}7 - Island Universes.wav

Peak level 99.9 %
Extraction speed 6.8 X
Track quality 100.0 %
Test CRC BE763059
Copy CRC BE763059
Accurately ripped (confidence 1) [D0E14AB9] (AR v2)
Copy OK

Track 8

Filename E:bzp01Karda Estra - Weird Tales (2009) [FLAC] {CYCL171}8 - There Is No Finished World.wav

Peak level 100.0 %
Extraction speed 7.4 X
Track quality 100.0 %
Test CRC 2447AD87
Copy CRC 2447AD87
Accurately ripped (confidence 1) [4D51E1FF] (AR v2)
Copy OK


All tracks accurately ripped

No errors occurred

End of status report

==== Log checksum 224FA01C1B07E438A63BD82DA1D235E88C93BB24E798B131E5139A6C2DF717DF ====

[CUETools log; Date: 19.02.2016 16:55:58; Version: 2.1.4]
[CTDB TOCID: DBDQzB6SDcJCgiec1MRnFW90l6U-] found.
Track | CTDB Status
1 | (1/1) Accurately ripped
2 | (1/1) Accurately ripped
3 | (1/1) Accurately ripped
4 | (1/1) Accurately ripped
5 | (1/1) Accurately ripped
6 | (1/1) Accurately ripped
7 | (1/1) Accurately ripped
8 | (1/1) Accurately ripped
[AccurateRip ID: 000c9fac-0054a27f-680a0808] found.
Track [ CRC | V2 ] Status
01 [cba2e04f|dc9d8c6b] (0+3/3) Accurately ripped
02 [2b14ec08|a4890ddb] (0+3/3) Accurately ripped
03 [1d8c58dd|e6496b4c] (0+3/3) Accurately ripped
04 [422cf625|04de53c9] (0+3/3) Accurately ripped
05 [04588a4c|63076632] (0+3/3) Accurately ripped
06 [938772ba|4973ae30] (0+3/3) Accurately ripped
07 [7ff3b841|d0e14ab9] (0+3/3) Accurately ripped
08 [c7d35431|4d51e1ff] (0+3/3) Accurately ripped

Track Peak [ CRC32 ] [W/O NULL] [ LOG ]
– 100,0 [E6FCF20C] [3014CC45]
01 100,0 [351CBD35] [E7850241] CRC32
02 83,0 [47DAF9CD] [5331E96B] CRC32
03 100,0 [ED36DD65] [9E572222] CRC32
04 100,0 [D1F38062] [10EADC72] CRC32
05 100,0 [8FE5F7D4] [12237BEF] CRC32
06 100,0 [ED25C9B2] [535BA5C0] CRC32
07 99,9 [BE763059] [A8A2697E] CRC32
08 100,0 [2447AD87] [78147A00] CRC32

Thanks to bzp01 & reverse77777

Karda Estra - Eve (2001)

LOSSLESS:
http://www.nitroflare.com/view/E777E7D164BF25B/1KE-E_01.rar
_______________

MP3 320 kbps:
http://www.nitroflare.com/view/CDB18764413FAC0/1KE-E_01_M.rar
_______________

Covers:
http://www.nitroflare.com/view/B94824CF32C0B63/1KE-E_01_sc.rar
______________________________________

Karda Estra - Voivode Dracula (2004)

LOSSLESS:
http://www.nitroflare.com/view/EDA465DC4E89538/2KE-VD_04.rar
_______________

MP3 320 kbps:
http://www.nitroflare.com/view/9BEC558BED8453A/2KE-VD_04_M.rar
_______________

Covers:
http://www.nitroflare.com/view/23C6ADEE59A6150/2KE-VD_04_sc.rar
______________________________________

Karda Estra - The Age of Science And Enlightenment (2006)

LOSSLESS:
http://www.nitroflare.com/view/62D5F1FF329673C/3KE-TAoSAE_06.rar
_______________

MP3 320 kbps:
http://www.nitroflare.com/view/305008345B52F4D/3KE-TAoSAE_06_M.rar
_______________

Covers:
http://www.nitroflare.com/view/4E6ABADBA172913/3KE-TAoSAE_06_sc.rar
______________________________________

Karda Estra - The Last Of The Libertine (2007)

LOSSLESS:
http://www.nitroflare.com/view/0AF1C0204F7A1D4/4KE-TLOTL_07.rar
_______________

MP3 320 kbps:
http://www.nitroflare.com/view/123FA07B0BED0AA/4KE-TLOTL_07_M.rar
_______________

Covers:
http://www.nitroflare.com/view/62ECA3374258AA6/4KE-TLOTL_07_sc.rar
______________________________________

Karda Estra - Weird Tales (2009)

LOSSLESS:
http://www.nitroflare.com/view/DDAF0CE2C6C55BA/5KE-WT_09.rar
_______________

MP3 320 kbps:
http://www.nitroflare.com/view/EDCE17D2963C54C/5KE-WT_09_M.rar
_______________

Covers:
http://www.nitroflare.com/view/8CD07F097EA1CC1/5KE-WT_09_sc.rar

Karda Estra - Eve (2001)

LOSSLESS:

_______________

MP3 320 kbps:

_______________

Covers:

______________________________________

Karda Estra - Voivode Dracula (2004)

LOSSLESS:

_______________

MP3 320 kbps:

_______________

Covers:

______________________________________

Karda Estra - The Age of Science And Enlightenment (2006)

LOSSLESS:

_______________

MP3 320 kbps:

_______________

Covers:

______________________________________

Karda Estra - The Last Of The Libertine (2007)

LOSSLESS:

_______________

MP3 320 kbps:

_______________

Covers:

______________________________________

Karda Estra - Weird Tales (2009)

LOSSLESS:

_______________

MP3 320 kbps:

_______________

Covers: