Son Seals - Nothing But The Truth (1994)


Son Seals - Nothing But The Truth (1994)
EAC | FLAC | Image (Cue&Log) ~ 393 Mb (incl 5%) | Mp3 (CBR320) ~ 145 Mb (incl 5%) | Scans included
Genre: Electric Chicago Blues | Label: Alligator Records | # ALCD 4822 | Time: 00:59:05

The grotesque cover illustration is an abomination, but the contents are right in the growling grizzly bear style that we've come to expect. Only four Seals-penned originals, but the R&B-laced "Life Is Hard" and "I'm Gonna Take It All Back" are quality efforts. So is his heartfelt tribute to Hound Dog Taylor, "Sadie."

Review by Bill Dahl, Allmusic.com

The dramatic authority of Son Seals's guitar runs and gloriously gruff singing voice are well-displayed on his seventh recording for Alligator, issued in 1994. But this time around, the gritty musical excitement generated so naturally by the former drummer is undermined by the crisp soul-blues inflections of his accompanists, including two horn players from his band then, and by '90s production touches. After honing his fluent style in two decades as a leading exponent of Chicago blues, the transition to a contemporary blues sound isn't all that smooth. The heart-wrenching tone of his guitar and the plaintive edge to his voice make "I'm Gonna Take It All Back" stand as one of his deepest, ah, most truthful originals ever, canceling any need for Tony Z's thick organ chords and John Randolph's rhythm guitar filigrees. Still, a flawed Son Seals album is better than the best from most modern blues artists.

Review by Frank-John Hadley, The Grove Press Guide to the Blues





Tracklist:

01. Adding Up (03:58)
02. Good Woman Bad (04:38)
03. Before The Bullets Fly (04:19)
04. I'm Gonna Take It All Back (06:05)
05. Life Is Hard (04:12)
06. Tough As Nail (03:09)
07. Your Friends (06:13)
08. Sadie (06:07)
09. Frank And Johnnie (04:26)
10. Can't Hear Nothing But The Blues (06:35)
11. Little Sally Walker (04:34)
12. Tricks Of The Trade (04:42)


Exact Audio Copy V0.99 prebeta 4 from 23. January 2008

Отчёт EAC об извлечении, выполненном 15. марта 2009, 13:26

Son Seals / Nothing But The Truth

Дисковод: Optiarc DVD RW AD-7203S Adapter: 1 ID: 1

Режим чтения : Достоверность
Использование точного потока : Да
Отключение кэша аудио : Да
Использование указателей C2 : Нет

Коррекция смещения при чтении : 48
Способность читать области Lead-in и Lead-out : Нет
Заполнение пропущенных сэмплов тишиной : Да
Удаление блоков с тишиной в начале и конце : Нет
При вычислениях CRC использовались нулевые сэмплы : Да
Интерфейс : Встроенный Win32-интерфейс для Win NT/2000

Выходной формат : Пользовательский кодировщик
Выбранный битрейт : 1024 kBit/s
Качество : Высокий
Добавление ID3-тэга : Нет
Утилита сжатия : C:Program FilesExact Audio CopyFlacflac.exe
Дополнительные параметры : -V -8 -T "artist=%a" -T "title=%t" -T "album=%g" -T "date=%y" -T "tracknumber=%n" -T "genre=%m" %s


TOC извлечённого CD

Трек | Старт | Длительность | Начальный сектор | Конечный сектор
––––––––––––––––––––––––––––––––––-
1 | 0:00.00 | 3:58.72 | 0 | 17921
2 | 3:58.72 | 4:38.73 | 17922 | 38844
3 | 8:37.70 | 4:19.67 | 38845 | 58336
4 | 12:57.62 | 6:05.53 | 58337 | 85764
5 | 19:03.40 | 4:12.72 | 85765 | 104736
6 | 23:16.37 | 3:09.00 | 104737 | 118911
7 | 26:25.37 | 6:13.68 | 118912 | 146954
8 | 32:39.30 | 6:07.40 | 146955 | 174519
9 | 38:46.70 | 4:26.22 | 174520 | 194491
10 | 43:13.17 | 6:35.30 | 194492 | 224146
11 | 49:48.47 | 4:34.25 | 224147 | 244721
12 | 54:22.72 | 4:42.10 | 244722 | 265881


Характеристики диапазона извлечения и сообщения об ошибках

Выбранный диапазон

Имя файла D:EAC-FOLDERSon Seals - Nothing But The TruthSon Seals - Nothing But The TruthSon Seals - Nothing But The Truth.wav

Пиковый уровень 100.0 %
Качество диапазона 99.9 %
CRC теста 060A3A86
CRC копии 060A3A86
Копирование… OK

Ошибок не произошло


AccurateRip: сводка

Трек 1 точное извлечение (доверие 2) [3F165B5F]
Трек 2 точное извлечение (доверие 2) [A864F856]
Трек 3 точное извлечение (доверие 2) [9CFFBCDE]
Трек 4 точное извлечение (доверие 2) [7A07B980]
Трек 5 точное извлечение (доверие 2) [00E6E2D2]
Трек 6 точное извлечение (доверие 2) [17506206]
Трек 7 точное извлечение (доверие 2) [E13FEC69]
Трек 8 точное извлечение (доверие 2) [66FB9A18]
Трек 9 точное извлечение (доверие 2) [D1D82C8A]
Трек 10 точное извлечение (доверие 2) [09A36FFC]
Трек 11 точное извлечение (доверие 2) [B4F6E029]
Трек 12 точное извлечение (доверие 2) [34220C70]

Все треки извлечены точно

Конец отчёта

foobar2000 1.2 / Dynamic Range Meter 1.1.1
log date: 2016-02-10 21:17:10

––––––––––––––––––––––––––––––––––––––––
Analyzed: Son Seals / Nothing But The Truth
––––––––––––––––––––––––––––––––––––––––

DR Peak RMS Duration Track
––––––––––––––––––––––––––––––––––––––––
DR11 0.00 dB -12.15 dB 3:59 01-Adding Up
DR12 -0.45 dB -14.27 dB 4:39 02-Good Woman Bad
DR12 0.00 dB -12.95 dB 4:20 03-Before The Bullets Fly
DR11 0.00 dB -12.76 dB 6:06 04-I'm Gonna Take It All Back
DR12 0.00 dB -13.40 dB 4:13 05-Life Is Hard
DR12 0.00 dB -12.83 dB 3:09 06-Tough As Nail
DR13 -0.39 dB -15.32 dB 6:14 07-Your Friends
DR12 0.00 dB -13.78 dB 6:08 08-Sadie
DR12 0.00 dB -13.56 dB 4:26 09-Frank And Johnnie
DR12 0.00 dB -14.26 dB 6:35 10-Can't Hear Nothing But The Blues
DR13 0.00 dB -13.52 dB 4:34 11-Little Sally Walker
DR13 -0.02 dB -14.71 dB 4:42 12-Tricks Of The Trade
––––––––––––––––––––––––––––––––––––––––

Number of tracks: 12
Official DR value: DR12

Samplerate: 44100 Hz
Channels: 2
Bits per sample: 16
Bitrate: 879 kbps
Codec: FLAC
================================================================================


All thanks to original releaser - jlhjlh