Entheogenic - 4 Albums (2002-2006) (Repost)


Entheogenic - 4 Albums (2002-2006)
EAC Rip | FLAC (image+.cue+log) - 1,78 GB | MP3 CBR 320 kbps (LAME 3.93) - 651 MB | Covers - 407 MB
Genre: Downtempo, Ambient | RAR 3% Rec. | Label: 3D Vision Relax, C.O.R.N. Recordings, Chillcode Music

Entheogenic is a musical project that crosses musical style boundaries. It mixes coloristic electrophonics with impressionistic orchestral sound. The use of both eastern and western vocals, tribal sounding instruments, as well as an array of synthesizers built the foundation of the Entheogenic sound. Their epic soundscapes manipulated through sound effects and catalystic sonic experimentations have a semi-classical feel to them. Entheogenic also records and uses a large amount of "natural samples" - water, human voices, animals, etc.
Entheogenic was formed in 1999, when Helmut Glavar and Piers Oak-Rhind met while working as VIPs for Emagic and sound technicians in a recording studio in France. Helmut Glavar, born in Austria, has been a musician and songwriter since the early 1980s and founded a variety of bands, ranging from punk and funk to new wave, and drums n bass. Piers Oak-Rhind, born in England, has been a sound designer, programmer and musician since the early 1990s, when he studied guitar at the London School of Guitar.


Entheogenic - Entheogenic (2002)
EAC Rip | FLAC (image+.cue+log) - 463 MB | MP3 CBR 320 kbps (LAME 3.93) - 165 MB | Covers - 51 MB
Genre: Downtempo, Ambient | RAR 3% Rec. | Label: 3D Vision Relax (3DVCD011)

Tracklist:
01. Level One
02. Light Ocean Blue
03. We Are One
04. Beyond Zero
05. Astral Cave
06. Liquid Universe
07. Yage
08. Earth Song
09. Absolute Love

Total time: 01:10:03

Exact Audio Copy V0.99 prebeta 5 from 4. May 2009

EAC extraction logfile from 12. November 2009, 2:45

Entheogenic / Entheogenic

Used drive : Optiarc DVD RW AD-7220A Adapter: 1 ID: 2

Read mode : Secure
Utilize accurate stream : Yes
Defeat audio cache : Yes
Make use of C2 pointers : No

Read offset correction : 6
Overread into Lead-In and Lead-Out : No
Fill up missing offset samples with silence : Yes
Delete leading and trailing silent blocks : No
Null samples used in CRC calculations : Yes
Used interface : Installed external ASPI interface

Used output format : User Defined Encoder
Selected bitrate : 1024 kBit/s
Quality : High
Add ID3 tag : No
Command line compressor : C:Program FilesExact Audio CopyFlacflac.exe
Additional command line options : -8 -V -T "ARTIST=%a" -T "TITLE=%t" -T "ALBUM=%g" -T "DATE=%y" -T "TRACKNUMBER=%n" -T "GENRE=%m" -T "COMMENT=%e" %s -o %d


TOC of the extracted CD

Track | Start | Length | Start sector | End sector
––––––––––––––––––––––––––––-
1 | 0:00.00 | 10:01.16 | 0 | 45090
2 | 10:01.16 | 8:34.52 | 45091 | 83692
3 | 18:35.68 | 7:38.04 | 83693 | 118046
4 | 26:13.72 | 7:31.56 | 118047 | 151927
5 | 33:45.53 | 6:46.19 | 151928 | 182396
6 | 40:31.72 | 7:21.27 | 182397 | 215498
7 | 47:53.24 | 7:52.26 | 215499 | 250924
8 | 55:45.50 | 7:28.04 | 250925 | 284528
9 | 63:13.54 | 6:49.03 | 284529 | 315206


Range status and errors

Selected range

Filename Y:_EAC_NewEntheogenic - Entheogenic.wav

Peak level 97.7 %
Range quality 100.0 %
Test CRC 125399D2
Copy CRC 125399D2
Copy OK

No errors occurred


AccurateRip summary

Track 1 accurately ripped (confidence 5) [E9BD6CF1]
Track 2 accurately ripped (confidence 6) [40BB7DCE]
Track 3 accurately ripped (confidence 6) [1C3E4339]
Track 4 accurately ripped (confidence 6) [795B188A]
Track 5 accurately ripped (confidence 6) [1424F3F5]
Track 6 accurately ripped (confidence 6) [00AFF9A2]
Track 7 accurately ripped (confidence 5) [EAFDAD92]
Track 8 accurately ripped (confidence 5) [FAC1FEBA]
Track 9 accurately ripped (confidence 5) [AA29D983]

All tracks accurately ripped

End of status report

[CUETools log; Date: 19.02.2016 22:37:39; Version: 2.1.4]
[CTDB TOCID: 8x16LhaCBQDJdWeAzCjAiLZwE6Y-] found.
Track | CTDB Status
1 | (7/7) Accurately ripped
2 | (7/7) Accurately ripped
3 | (7/7) Accurately ripped
4 | (7/7) Accurately ripped
5 | (7/7) Accurately ripped
6 | (7/7) Accurately ripped
7 | (7/7) Accurately ripped
8 | (7/7) Accurately ripped
9 | (7/7) Accurately ripped
[AccurateRip ID: 001922d4-00b58584-7d106a09] found.
Track [ CRC | V2 ] Status
01 [e9bd6cf1|5df5137c] (07+05/12) Accurately ripped
02 [40bb7dce|d127a2fb] (08+05/13) Accurately ripped
03 [1c3e4339|f1a1be6f] (08+05/13) Accurately ripped
04 [795b188a|a3a7d261] (08+05/13) Accurately ripped
05 [1424f3f5|51005d24] (08+05/13) Accurately ripped
06 [00aff9a2|02be8324] (08+05/13) Accurately ripped
07 [eafdad92|c47fe97a] (07+05/12) Accurately ripped
08 [fac1feba|2528dc82] (07+05/12) Accurately ripped
09 [aa29d983|df680401] (07+05/12) Accurately ripped

Track Peak [ CRC32 ] [W/O NULL] [ LOG ]
– 97,7 [125399D2] [8454D4AA] CRC32
01 97,6 [0EA9F14D] [86E217E1]
02 97,7 [517F9C70] [FC0587D3]
03 97,7 [C52BF1F3] [39D93E6E]
04 91,1 [8333C1CB] [C7B617DF]
05 97,6 [75A40008] [776E44A2]
06 91,1 [7C119A91] [D027EC2C]
07 97,7 [08F0044B] [BE172370]
08 91,1 [7B197181] [7CFCC102]
09 97,6 [B074398D] [5B5B97A3]


Entheogenic - Spontaneous Illumination (2003)
EAC Rip | FLAC (image+.cue+log) - 469 MB | MP3 CBR 320 kbps (LAME 3.93) - 169 MB | Covers - 125 MB
Genre: Downtempo, Ambient | RAR 3% Rec. | Label: C.O.R.N. Recordings (CORNCD01)

Tracklist:
01. Ground Luminosity
02. Habitual Overtones
03. Pagan Dream Machine
04. Mindless
05. Invisible Landscapes
06. Twilight Eyes
07. Spaced

Total time: 01:11:59

Exact Audio Copy V0.99 prebeta 5 from 4. May 2009

EAC extraction logfile from 13. November 2009, 21:01

Entheogenic / Spontaneous Illumination

Used drive : Optiarc DVD RW AD-7220A Adapter: 1 ID: 2

Read mode : Secure
Utilize accurate stream : Yes
Defeat audio cache : Yes
Make use of C2 pointers : No

Read offset correction : 6
Overread into Lead-In and Lead-Out : No
Fill up missing offset samples with silence : Yes
Delete leading and trailing silent blocks : No
Null samples used in CRC calculations : Yes
Used interface : Installed external ASPI interface

Used output format : User Defined Encoder
Selected bitrate : 1024 kBit/s
Quality : High
Add ID3 tag : No
Command line compressor : C:Program FilesExact Audio CopyFlacflac.exe
Additional command line options : -8 -V -T "ARTIST=%a" -T "TITLE=%t" -T "ALBUM=%g" -T "DATE=%y" -T "TRACKNUMBER=%n" -T "GENRE=%m" -T "COMMENT=%e" %s -o %d


TOC of the extracted CD

Track | Start | Length | Start sector | End sector
––––––––––––––––––––––––––––-
1 | 0:00.00 | 11:42.22 | 0 | 52671
2 | 11:42.22 | 8:54.53 | 52672 | 92774
3 | 20:37.00 | 9:45.15 | 92775 | 136664
4 | 30:22.15 | 9:41.21 | 136665 | 180260
5 | 40:03.36 | 9:35.50 | 180261 | 223435
6 | 49:39.11 | 12:32.16 | 223436 | 279851
7 | 62:11.27 | 9:47.63 | 279852 | 323939
8 | 74:31.15 | 6:48.70 | 335340 | 366009


Range status and errors

Selected range

Filename Y:_EAC_NewEntheogenic - Spontaneous Illumination.wav

Peak level 98.8 %
Range quality 100.0 %
Test CRC 91AA78B4
Copy CRC 91AA78B4
Copy OK

No errors occurred


AccurateRip summary

Track 1 accurately ripped (confidence 3) [20CB63B1]
Track 2 accurately ripped (confidence 3) [C569504C]
Track 3 accurately ripped (confidence 3) [A3F267EB]
Track 4 accurately ripped (confidence 3) [FCDDB90B]
Track 5 accurately ripped (confidence 3) [44D360F2]
Track 6 accurately ripped (confidence 3) [DB968969]
Track 7 accurately ripped (confidence 3) [D38695AE]

All tracks accurately ripped

End of status report

[CUETools log; Date: 19.02.2016 22:43:53; Version: 2.1.4]
CD-Extra data track length 06:48:70.
[CTDB TOCID: 96x5Dy_DqUJ7e1WMe2sGVvaASsA-] found.
Track | CTDB Status
1 | (5/5) Accurately ripped
2 | (5/5) Accurately ripped
3 | (5/5) Accurately ripped
4 | (5/5) Accurately ripped
5 | (5/5) Accurately ripped
6 | (4/5) Accurately ripped
7 | (4/5) Accurately ripped
[AccurateRip ID: 001451d7-007af99f-6c131008] found.
Track [ CRC | V2 ] Status
01 [20cb63b1|30fe9981] (4+4/8) Accurately ripped
02 [c569504c|f5212da1] (4+4/8) Accurately ripped
03 [a3f267eb|50009cd5] (4+4/8) Accurately ripped
04 [fcddb90b|be117183] (4+4/8) Accurately ripped
05 [44d360f2|56065699] (4+4/8) Accurately ripped
06 [db968969|a108511d] (4+4/8) Accurately ripped
07 [d38695ae|390ba46d] (4+4/8) Accurately ripped

Track Peak [ CRC32 ] [W/O NULL] [ LOG ]
– 98,8 [91AA78B4] [CB2E3D54] CRC32
01 98,8 [E3BFC162] [53FE8652]
02 98,8 [BFC01DAE] [5E661551]
03 98,8 [2F465261] [5D300878]
04 98,8 [0E2C1865] [5B6B9DE9]
05 98,8 [605B736D] [148AD057]
06 98,8 [96B5FE06] [76012107]
07 98,8 [8CDAB599] [746322CE]


Entheogenic - Dialogue Of The Speakers (2005)
EAC Rip | FLAC (image+.cue+log) - 426 MB | MP3 CBR 320 kbps (LAME 3.93) - 159 MB | Covers - 146 MB
Genre: Downtempo, Ambient | RAR 3% Rec. | Label: Chillcode Music (CHILLCD003)

Tracklist:
Movement 1
01. Aranyanyara - The Ouverture
Movement 2
02. Timeless E.S.P. (Ott's New Wasserboxer Mix)
03. Pagan Dream Machine (Vibrasphere Remix)
04. Without Thought (Youth Remix)
Мovement 3
05. Ground Luminosity (Ott's New Yoghurt Loom Mix)
06. Timeless E.S.P.
Movement 4
07. Without Thought
08. Aranyanyara (Abakus Remix)
Movement 5
09. Spaced (Shulman Remix)

Total time: 01:07:35

Exact Audio Copy V0.99 prebeta 5 from 4. May 2009

EAC extraction logfile from 26. September 2009, 18:43

Entheogenic / Dialogue Of The Speakers

Used drive : Optiarc DVD RW AD-7240S Adapter: 0 ID: 1

Read mode : Secure
Utilize accurate stream : Yes
Defeat audio cache : Yes
Make use of C2 pointers : No

Read offset correction : 48
Overread into Lead-In and Lead-Out : No
Fill up missing offset samples with silence : Yes
Delete leading and trailing silent blocks : No
Null samples used in CRC calculations : Yes
Used interface : Installed external ASPI interface

Used output format : User Defined Encoder
Selected bitrate : 1024 kBit/s
Quality : High
Add ID3 tag : No
Command line compressor : C:Program FilesExact Audio CopyFLACFLAC.EXE
Additional command line options : -8 -V -T "ARTIST=%a" -T "TITLE=%t" -T "ALBUM=%g" -T "DATE=%y" -T "TRACKNUMBER=%n" -T "GENRE=%m" -T "COMMENT=%e" %s -o %d


TOC of the extracted CD

Track | Start | Length | Start sector | End sector
––––––––––––––––––––––––––––-
1 | 0:00.00 | 6:47.57 | 0 | 30581
2 | 6:47.57 | 8:11.62 | 30582 | 67468
3 | 14:59.44 | 8:32.68 | 67469 | 105936
4 | 23:32.37 | 6:49.13 | 105937 | 136624
5 | 30:21.50 | 8:29.53 | 136625 | 174852
6 | 38:51.28 | 7:33.12 | 174853 | 208839
7 | 46:24.40 | 6:15.33 | 208840 | 236997
8 | 52:39.73 | 6:53.39 | 236998 | 268011
9 | 59:33.37 | 8:01.27 | 268012 | 304113


Range status and errors

Selected range

Filename D:_EAC_RippedEntheogenic - Dialogue Of The Speakers.wav

Peak level 100.0 %
Range quality 99.9 %
Test CRC CBB4E09B
Copy CRC CBB4E09B
Copy OK

No errors occurred


AccurateRip summary

Track 1 accurately ripped (confidence 5) [F8F23589]
Track 2 accurately ripped (confidence 5) [EA3876F3]
Track 3 accurately ripped (confidence 5) [B3D29077]
Track 4 accurately ripped (confidence 5) [7B86DFA0]
Track 5 accurately ripped (confidence 5) [36F1C898]
Track 6 accurately ripped (confidence 5) [06987DED]
Track 7 accurately ripped (confidence 5) [FB9775C0]
Track 8 accurately ripped (confidence 5) [BD0F0840]
Track 9 accurately ripped (confidence 5) [EE398DDF]

All tracks accurately ripped

End of status report

[CUETools log; Date: 19.02.2016 22:45:43; Version: 2.1.4]
[CTDB TOCID: On7ZISSr57E.LqSdrUYTebKrguU-] found.
Track | CTDB Status
1 | (6/6) Accurately ripped
2 | (6/6) Accurately ripped
3 | (6/6) Accurately ripped
4 | (6/6) Accurately ripped
5 | (6/6) Accurately ripped
6 | (6/6) Accurately ripped
7 | (6/6) Accurately ripped
8 | (6/6) Accurately ripped
9 | (6/6) Accurately ripped
[AccurateRip ID: 001765f6-00ab5dd3-720fd609] found.
Track [ CRC | V2 ] Status
01 [f8f23589|66c489a4] (12+03/15) Accurately ripped
02 [ea3876f3|cb382307] (12+03/15) Accurately ripped
03 [b3d29077|3e408797] (12+03/15) Accurately ripped
04 [7b86dfa0|1c601a21] (12+03/15) Accurately ripped
05 [36f1c898|13e96071] (12+03/15) Accurately ripped
06 [06987ded|7edb6c33] (12+03/15) Accurately ripped
07 [fb9775c0|be1c75e8] (12+03/15) Accurately ripped
08 [bd0f0840|d1839b1d] (12+03/15) Accurately ripped
09 [ee398ddf|7ae730b4] (12+03/15) Accurately ripped

Track Peak [ CRC32 ] [W/O NULL] [ LOG ]
– 100,0 [CBB4E09B] [AFB5DC58] CRC32
01 90,8 [CD92E1B5] [9BDAD86D]
02 97,2 [23220BEF] [D4985A4D]
03 98,8 [9117F96E] [615BBC32]
04 100,0 [4AC070EE] [6E26AEFC]
05 97,2 [97589EC6] [700755DE]
06 97,7 [FA1D5A0D] [3553BE66]
07 98,8 [45A1671B] [F7C71B4D]
08 95,5 [E7330ADC] [EC3A800F]
09 86,2 [B687B5EC] [E681826B]


Entheogenic - Golden Cap (2006)
EAC Rip | FLAC (image+.cue+log) - 430 MB | MP3 CBR 320 kbps (LAME 3.93) - 158 MB | Covers - 85 MB
Genre: Downtempo, Ambient | RAR 3% Rec. | Label: Chillcode Music (CHILLCD005)

Tracklist:
01. Midnight Eyes
02. Sideways
03. Golden Cap
04. Zero Plus
05. Kashmir Day Trip
06. The Solution Machine
07. Absphinx
08. Secret Tongues
09. Ju

Total time: 01:07:23

Exact Audio Copy V0.99 prebeta 5 from 4. May 2009

EAC extraction logfile from 3. July 2009, 12:14

Entheogenic / Golden Cap

Used drive : Optiarc DVD RW AD-7240S Adapter: 0 ID: 1

Read mode : Secure
Utilize accurate stream : Yes
Defeat audio cache : Yes
Make use of C2 pointers : No

Read offset correction : 48
Overread into Lead-In and Lead-Out : No
Fill up missing offset samples with silence : Yes
Delete leading and trailing silent blocks : No
Null samples used in CRC calculations : Yes
Used interface : Installed external ASPI interface

Used output format : User Defined Encoder
Selected bitrate : 1024 kBit/s
Quality : High
Add ID3 tag : No
Command line compressor : C:Program FilesExact Audio CopyFLACFLAC.EXE
Additional command line options : -8 -V -T "ARTIST=%a" -T "TITLE=%t" -T "ALBUM=%g" -T "DATE=%y" -T "TRACKNUMBER=%n" -T "GENRE=%m" -T "COMMENT=%e" %s -o %d


TOC of the extracted CD

Track | Start | Length | Start sector | End sector
––––––––––––––––––––––––––––-
1 | 0:00.00 | 8:39.30 | 0 | 38954
2 | 8:39.30 | 7:20.13 | 38955 | 71967
3 | 15:59.43 | 6:48.04 | 71968 | 102571
4 | 22:47.47 | 8:10.05 | 102572 | 139326
5 | 30:57.52 | 7:41.00 | 139327 | 173901
6 | 38:38.52 | 6:43.32 | 173902 | 204158
7 | 45:22.09 | 7:11.57 | 204159 | 236540
8 | 52:33.66 | 5:36.67 | 236541 | 261807
9 | 58:10.58 | 9:11.61 | 261808 | 303193


Range status and errors

Selected range

Filename D:_EAC_RippedEntheogenic - Golden Cap.wav

Peak level 98.8 %
Range quality 100.0 %
Test CRC E45D7B88
Copy CRC E45D7B88
Copy OK

No errors occurred


AccurateRip summary

Track 1 accurately ripped (confidence 3) [CD9A8CA6]
Track 2 accurately ripped (confidence 3) [771A9712]
Track 3 accurately ripped (confidence 3) [FC9403D4]
Track 4 accurately ripped (confidence 3) [B76D051C]
Track 5 accurately ripped (confidence 3) [354ED01F]
Track 6 accurately ripped (confidence 3) [4417D4BB]
Track 7 accurately ripped (confidence 3) [AE8E8958]
Track 8 accurately ripped (confidence 3) [1146F34A]
Track 9 accurately ripped (confidence 3) [0CB16915]

All tracks accurately ripped

End of status report

[CUETools log; Date: 19.02.2016 22:46:17; Version: 2.1.4]
[CTDB TOCID: Ol2.bdK8FSNarmEhocYPIEVfgIg-] found.
Track | CTDB Status
1 | (7/7) Accurately ripped
2 | (7/7) Accurately ripped
3 | (7/7) Accurately ripped
4 | (7/7) Accurately ripped
5 | (7/7) Accurately ripped
6 | (7/7) Accurately ripped
7 | (7/7) Accurately ripped
8 | (7/7) Accurately ripped
9 | (6/7) Accurately ripped
[AccurateRip ID: 0017620a-00aa318b-7a0fca09] found.
Track [ CRC | V2 ] Status
01 [cd9a8ca6|dfe7bd58] (08+03/11) Accurately ripped
02 [771a9712|217cc62c] (08+03/11) Accurately ripped
03 [fc9403d4|4a36c07b] (08+03/11) Accurately ripped
04 [b76d051c|4ad78eb6] (08+03/11) Accurately ripped
05 [354ed01f|05fcc6d9] (08+03/11) Accurately ripped
06 [4417d4bb|6d6cf382] (08+03/11) Accurately ripped
07 [ae8e8958|fbbd7cee] (08+03/11) Accurately ripped
08 [1146f34a|838aed4e] (08+03/11) Accurately ripped
09 [0cb16915|d439eceb] (08+03/11) Accurately ripped

Track Peak [ CRC32 ] [W/O NULL] [ LOG ]
– 98,8 [E45D7B88] [D1BD7B4B] CRC32
01 96,0 [9AEC7172] [21140CCB]
02 95,4 [5E9CEE79] [B5527262]
03 95,8 [13586250] [18AA0C53]
04 94,4 [D0BCA7F8] [45D6D13C]
05 94,8 [99626B34] [139FA13A]
06 95,3 [45D199A7] [343BE4B8]
07 96,3 [C9A5C067] [C4517B85]
08 98,8 [E9DB714E] [990523B7]
09 96,0 [BCF45DEB] [2FD736C7]

Thanks to EPSmuz

Entheogenic - Entheogenic (2002)

LOSSLESS:
http://www.nitroflare.com/view/5276EEE92A8C61F/1E-E_02.rar
_______________

MP3 320 kbps:
http://www.nitroflare.com/view/176EE03BC2C5018/1E-E_02_M.rar
_______________

Covers:
http://www.nitroflare.com/view/06D973A4A3DDDC5/1E-E_02_sc.rar
______________________________________

Entheogenic - Spontaneous Illumination (2003)

LOSSLESS:
http://www.nitroflare.com/view/4DD57F44EF663FB/2E-SI_03.rar
_______________

MP3 320 kbps:
http://www.nitroflare.com/view/BD705ED5B2D7C21/2E-SI_03_M.rar
_______________

Covers:
http://www.nitroflare.com/view/45F106916D7DAF9/2E-SI_03_sc.rar
______________________________________

Entheogenic - Dialogue Of The Speakers (2005)

LOSSLESS:
http://www.nitroflare.com/view/B7E667CD1CDBB60/3E-DOTS_05.rar
_______________

MP3 320 kbps:
http://www.nitroflare.com/view/9788364382F32FC/3E-DOTS_05_M.rar
_______________

Covers:
http://www.nitroflare.com/view/E9277D3DA55D59E/3E-DOTS_05_sc.rar
______________________________________

Entheogenic - Golden Cap (2006)

LOSSLESS:
http://www.nitroflare.com/view/8F6EE6B12DA8A20/4E-GC_06.rar
_______________

MP3 320 kbps:
http://www.nitroflare.com/view/86C3461DB7E512F/4E-GC_06_M.rar
_______________

Covers:
http://www.nitroflare.com/view/CDACADF485D0D77/4E-GC_06_sc.rar

Entheogenic - Entheogenic (2002)

LOSSLESS:

_______________

MP3 320 kbps:

_______________

Covers:

______________________________________

Entheogenic - Spontaneous Illumination (2003)

LOSSLESS:

_______________

MP3 320 kbps:

_______________

Covers:

______________________________________

Entheogenic - Dialogue Of The Speakers (2005)

LOSSLESS:

_______________

MP3 320 kbps:

_______________

Covers:

______________________________________

Entheogenic - Golden Cap (2006)

LOSSLESS:

_______________

MP3 320 kbps:

_______________

Covers: