Delta - Deny Humanity (2010)


Delta - Deny Humanity (2010)
EAC Rip | FLAC (Img) + Cue + Log ~ 476 Mb | MP3 CBR320 ~ 164 Mb
Scans Included (JPG, 300 dpi) | RAR 5% Recovery
Neoclassical, Progressive Metal | Australis Records #AUSCD008

Delta is a metal band that mix the progressive and neoclassical style with the coolness of classic rock. Delta is a Rock/Metal progressive band from Chile, formed by Nicolas Quinteros (Keyboard), Benjamín Lechuga (guitars), Marcos Sanchez (Bass), Felipe del Valle (Vocals) and Andrés Rojas (Drums). The story begins in 2004, when Delta released its first album called "Apollyon is Free". This led to Delta's firsts gigs and to generate audience. In 2005, Benjamin Lechuga was endorsed by Ibanez Guitars and in the middle of the same year, they were called to play with Stratovarius in Chile. After that, in early 2006, due to the growing demand from fans, they released "Black & Cold" and later, in 2007, they played with 2 worldwide metal bands: Symphony x and Vision Divine and at the same time they toured through the South of Chile and then on 2008 they played with Dream Theater at Arena Movistar in Santiago, and in a few months later, they played with"Riders of the storm: The doors". In that same year, they released their third album called "Crashbreaker" and the first DVD ''Live at the Beggining'', which made the band gain great importance in the chilean metal scene. In 2010, they released their fourth album called "Deny Humanity" under the label "Australis Records", which made the band to be called once again to play with Sonata Arctica at the Caupolican Theatre. In 2011, Delta toured once again throughout various locations in Chile in the "Deny Humanity Tour. The same year DELTA recorded their second DVD ''Virtual Live'' under the label ''Australis Records''. In 2013, Delta entered the Hard Rock Rising competition, and through online voting, the band got first place amongst 90 bands around the world. The band is now preparing their next album, entitled "End of Philosophy", which will have the appearence of great guest musicians and producers such as John West, Fredrik Nordstrom and Jens Bogren.

| | |

***************


Track List:

01. Fatal Error [01:24]
02. Over And Over Again [05:10]
03. Revolution [03:56]
04. Desire Within [05:53]
05. Doors Keep Spinning [05:38]
06. Perfect Insanity [05:51]
07. Fragile [07:09]
08. 2702 [03:16]
09. Virtual Life [06:42]
10. God Or Science [06:42]
11. The Human Touch [07:34]

Exact Audio Copy V1.1 from 23. June 2015

EAC extraction logfile from 13. February 2016, 18:46

Delta / Deny Humanity

Used drive : PIONEER BD-RW BDR-209D Adapter: 0 ID: 5

Read mode : Secure
Utilize accurate stream : Yes
Defeat audio cache : Yes
Make use of C2 pointers : No

Read offset correction : 667
Overread into Lead-In and Lead-Out : No
Fill up missing offset samples with silence : Yes
Delete leading and trailing silent blocks : No
Null samples used in CRC calculations : Yes
Used interface : Installed external ASPI interface

Used output format : User Defined Encoder
Selected bitrate : 768 kBit/s
Quality : High
Add ID3 tag : No
Command line compressor : C:Program Files (x86)Exact Audio CopyFLACFLAC.EXE
Additional command line options : -6 -V -T "ARTIST=%artist%" -T "TITLE=%title%" -T "ALBUM=%albumtitle%" -T "DATE=%year%" -T "TRACKNUMBER=%tracknr%" -T "GENRE=%genre%" -T "COMMENT=%comment%" -T "BAND=%albuminterpret%" -T "ALBUMARTIST=%albuminterpret%" -T "COMPOSER=%composer%" %haslyrics%–tag-from-file=LYRICS="%lyricsfile%"%haslyrics% -T "DISCNUMBER=%cdnumber%" -T "TOTALDISCS=%totalcds%" -T "TOTALTRACKS=%numtracks%" %hascover%–picture="%coverfile%"%hascover% %source% -o %dest%


TOC of the extracted CD

Track | Start | Length | Start sector | End sector
––––––––––––––––––––––––––––-
1 | 0:00.00 | 1:23.10 | 0 | 6234
2 | 1:23.10 | 5:09.16 | 6235 | 29425
3 | 6:32.26 | 3:55.04 | 29426 | 47054
4 | 10:27.30 | 5:52.66 | 47055 | 73520
5 | 16:20.21 | 5:37.48 | 73521 | 98843
6 | 21:57.69 | 5:50.20 | 98844 | 125113
7 | 27:48.14 | 7:08.19 | 125114 | 157232
8 | 34:56.33 | 3:15.53 | 157233 | 171910
9 | 38:12.11 | 6:41.34 | 171911 | 202019
10 | 44:53.45 | 6:41.39 | 202020 | 232133
11 | 51:35.09 | 7:33.67 | 232134 | 266175


Range status and errors

Selected range

Filename E:MUSICDelta - Deny Humanity.wav

Peak level 97.7 %
Extraction speed 5.3 X
Range quality 100.0 %
Test CRC 7C9FA140
Copy CRC 7C9FA140
Copy OK

No errors occurred


AccurateRip summary

Track 1 not present in database
Track 2 not present in database
Track 3 not present in database
Track 4 not present in database
Track 5 not present in database
Track 6 not present in database
Track 7 not present in database
Track 8 not present in database
Track 9 not present in database
Track 10 not present in database
Track 11 not present in database

None of the tracks are present in the AccurateRip database

End of status report

==== Log checksum AB171B170BB6343A5B7AD16834812C99070E7F18249F2053FE37BCD59F30DE3E ====

foobar2000 1.2.6 / Dynamic Range Meter 1.1.1
log date: 2016-02-22 22:34:04

––––––––––––––––––––––––––––––––––––––––
Analyzed: Delta / Deny Humanity
––––––––––––––––––––––––––––––––––––––––

DR Peak RMS Duration Track
––––––––––––––––––––––––––––––––––––––––
DR8 -0.40 dB -14.02 dB 1:23 01-Fatal Error
DR5 -0.40 dB -6.30 dB 5:09 02-Over And Over Again
DR5 -0.40 dB -6.79 dB 3:55 03-Revolution
DR6 -0.20 dB -7.23 dB 5:53 04-Desire Within
DR5 -0.20 dB -6.89 dB 5:38 05-Doors Keep Spinning
DR6 -0.20 dB -6.79 dB 5:50 06-Perfect Insanity
DR6 -0.20 dB -8.61 dB 7:08 07-Fragile
DR6 -0.20 dB -9.80 dB 3:16 08-2702
DR6 -0.40 dB -8.60 dB 6:41 09-Virtual Life
DR5 -0.40 dB -7.44 dB 6:42 10-God Or Science
DR6 -0.20 dB -9.36 dB 7:34 11-The Human Touch
––––––––––––––––––––––––––––––––––––––––

Number of tracks: 11
Official DR value: DR6

Samplerate: 44100 Hz
Channels: 2
Bits per sample: 16
Bitrate: 1023 kbps
Codec: FLAC
================================================================================

[CUETools log; Date: 22.02.2016 22:33:57; Version: 2.1.5]
[CTDB TOCID: 32V3oFLDRlXsEeQ6hf2llMs8XFc-] disk not present in database.
[AccurateRip ID: 00158285-00c1c2ad-ac0ddd0b] disk not present in database.

Track Peak [ CRC32 ] [W/O NULL] [ LOG ]
– 97,7 [7C9FA140] [AE9F1E59] CRC32
01 95,5 [0369CE76] [CF5FB0A4]
02 95,5 [FA1EF4BC] [8665B640]
03 95,5 [2948B40E] [2B61CCFD]
04 97,7 [66D50336] [6813ECDF]
05 97,7 [C985B71D] [3A24EC82]
06 97,7 [14E430FF] [E16C1EC4]
07 97,7 [C8A20B07] [128CEFA7]
08 97,7 [F8F5534F] [A5C63F29]
09 95,5 [44B0DED1] [FE50DC99]
10 95,5 [86D383C7] [7DEEEFA6]
11 97,7 [6F21AB93] [F4BBAAFA]


All thanks go to RD



Download:
Salefiles: | |

Turbobit: | |