Gandalf's Fist - From A Point Of Existence (2012)


Gandalf's Fist - From A Point Of Existence (2012)
EAC Rip | FLAC (Img) + Cue + Log ~ 451 Mb | MP3 CBR320 ~ 159 Mb
Scans Included (JPG, 300 dpi) | RAR 5% Recovery
Neo Progressive Rock | © Gandalf's Fist #859712632357

Prog/Folk/Rock from the Murky depths of Cumbria. Aided by a merry band of misfits, Gandalf's Fist are your new favourite Cult band waiting to be discovered! Gandalf's Fist draw on their mutual love for classic rock bands such as Pink Floyd, The Who, and even the likes of Iron Maiden.

Gandalf's Fist is a British band from Maryport, Cumbria. Their music is influenced by 1970s progressive/psychedelic rock. The group formed in 2005, and built their reputation through various airplay by national radio with the help of several interviews in the "Classic Rock presents Prog"- Magazine, they cemented their reputation by playing at the "Second Stage" of Planet Rockstock in Great Yarmouth in December 2013, despite being a "initially studio only" project. They were featured in the TOP20 of Geoff Barton's 2013 Critic's choice in PROG Magazine Issue #41 lately.

| |

***************


Track List:

01. The Tale of William Small [02:28]
02. From a Point of Existence (Parts I - V) [16:37]
03. Gathering of the Clouds [09:21]
04. There & Back Again [05:32]
05. Crestfallen [06:46]
06. Monolith [06:03]
07. From a Point of Existence (Parts VI - X) [13:32]

In a town, in a van, there lived a man…

Set in the near future, this latest Medieval-Space-Rock Odyssey, is a Psychedelic Roller-coaster, following the story of William, a lowly ice cream van operator, who inexplicably becomes embroiled in the heist of the personal wealth of the draconian business-magnate Sir Jason Drake.
Opening with the assassination of Drake outside his high-rise London apartment, the album delves into the events leading up to the businessman's shooting.

From Drake's illegal takeover of the Lunar Mining Corporation, to a chance meeting of parties with the anarchist-professor known simply as "G", the story twists and turns revealing the characters' true motivations, culminating with the heartless mogul finally contemplating redemption from his own point in existence.

Dramatis Personæ:
William Small - An Ice Cream Van operator, facing bankruptcy. The foreclosure on his property has lead to transient accommodation in the back of his company's van.
Sir Jason Drake - A ruthless and miserly entrepreneur and head of Sole Industries Ltd.
A Company of Lunar Miners - made recently unemployed by S.I.'s illegal business merger, their resolve for compensation is fuelled further by the collapse of the LMC Worker's Union
"G" - A secretive Sociology teacher with his own agenda
Gordon - Drake's blind 13 year old son, although abandoned at birth, he has recently come into possession of S.I.'s security codes.
Shakespeare - a retired assassin from the Eden Valley in Cumberland

Personnel:

Dean Marsh - Vocals, guitars, keyboards/synths, percussion
Luke Severn - Vocals
Aisling Marsh - Additional Backing Vocals (Crestfallen) & Coverart

Exact Audio Copy V1.1 from 23. June 2015

EAC extraction logfile from 19. October 2015, 21:00

Gandalf's Fist / From a Point of Existence

Used drive : TEAC CD-W516EB Adapter: 1 ID: 1

Read mode : Secure
Utilize accurate stream : Yes
Defeat audio cache : Yes
Make use of C2 pointers : No

Read offset correction : 685
Overread into Lead-In and Lead-Out : No
Fill up missing offset samples with silence : Yes
Delete leading and trailing silent blocks : No
Null samples used in CRC calculations : Yes
Used interface : Native Win32 interface for Win NT & 2000

Used output format : User Defined Encoder
Selected bitrate : 1024 kBit/s
Quality : High
Add ID3 tag : Yes
Command line compressor : C:Program Files (x86)FLAC_1.3.1win64flac.exe
Additional command line options : -6 -V -T "ARTIST=%artist%" -T "TITLE=%title%" -T "ALBUM=%albumtitle%" -T "DATE=%year%" -T "TRACKNUMBER=%tracknr%" -T "GENRE=%genre%" -T "COMMENT=ripped by wurensh for rutracker.org" %source% -o %dest%


TOC of the extracted CD

Track | Start | Length | Start sector | End sector
––––––––––––––––––––––––––––-
1 | 0:00.00 | 2:27.05 | 0 | 11029
2 | 2:27.05 | 16:36.10 | 11030 | 85739
3 | 19:03.15 | 9:20.45 | 85740 | 127784
4 | 28:23.60 | 5:31.06 | 127785 | 152615
5 | 33:54.66 | 6:45.67 | 152616 | 183057
6 | 40:40.58 | 6:02.60 | 183058 | 210267
7 | 46:43.43 | 13:31.39 | 210268 | 271131


Range status and errors

Selected range

Filename Y:EACwurenshGandalf's FistGandalf's Fist - From a Point of Existence.wav

Peak level 96.6 %
Extraction speed 7.5 X
Range quality 100.0 %
Test CRC CFD96BF1
Copy CRC CFD96BF1
Copy OK

No errors occurred


AccurateRip summary

Track 1 not present in database
Track 2 not present in database
Track 3 not present in database
Track 4 not present in database
Track 5 not present in database
Track 6 not present in database
Track 7 cannot be verified as accurate (confidence 1) [CB6E8CB7], AccurateRip returned [6A9469F5] (AR v2)

1 track(s) could not be verified as accurate
6 track(s) not present in the AccurateRip database

No tracks could be verified as accurate
You may have a different pressing from the one(s) in the database

End of status report

–– CUETools DB Plugin V2.1.6

[CTDB TOCID: IgDwEzlPqoLFq9JGBYCg9qIXxB0-] found
Submit result: IgDwEzlPqoLFq9JGBYCg9qIXxB0- has been confirmed
Track | CTDB Status
1 | (1/1) Accurately ripped
2 | (1/1) Accurately ripped
3 | (1/1) Accurately ripped
4 | (1/1) Accurately ripped
5 | (1/1) Accurately ripped
6 | (1/1) Accurately ripped
7 | (1/1) Accurately ripped


==== Log checksum F3B237A6F581E4986A38F17FB853C3589E87F199953BA1804A37605AF9CB84DE ====

foobar2000 1.2.6 / Dynamic Range Meter 1.1.1
log date: 2016-02-23 03:10:09

––––––––––––––––––––––––––––––––––––––––
Analyzed: Gandalf's Fist / From a Point of Existence
––––––––––––––––––––––––––––––––––––––––

DR Peak RMS Duration Track
––––––––––––––––––––––––––––––––––––––––
DR10 -0.30 dB -13.60 dB 2:27 01-The Tale of William Small
DR9 -0.30 dB -10.99 dB 16:36 02-From a Point of Existence (Parts I - V)
DR9 -0.30 dB -10.76 dB 9:21 03-Gathering of the Clouds
DR9 -0.30 dB -10.88 dB 5:31 04-There & Back Again
DR10 -0.30 dB -11.56 dB 6:46 05-Crestfallen
DR9 -0.30 dB -10.49 dB 6:03 06-Monolith
DR9 -0.30 dB -11.13 dB 13:32 07-From a Point of Existence (Parts VI - X)
––––––––––––––––––––––––––––––––––––––––

Number of tracks: 7
Official DR value: DR9

Samplerate: 44100 Hz
Channels: 2
Bits per sample: 16
Bitrate: 965 kbps
Codec: FLAC
================================================================================

[CUETools log; Date: 23.02.2016 3:10:08; Version: 2.1.5]
[CTDB TOCID: IgDwEzlPqoLFq9JGBYCg9qIXxB0-] found.
Track | CTDB Status
1 | (3/3) Accurately ripped
2 | (3/3) Accurately ripped
3 | (3/3) Accurately ripped
4 | (3/3) Accurately ripped
5 | (3/3) Accurately ripped
6 | (3/3) Accurately ripped
7 | (3/3) Accurately ripped
[AccurateRip ID: 000fe4dd-0060052d-4e0e1f07] found.
Track [ CRC | V2 ] Status
01 [4ceec1c5|91475e81] (0+1/1) Accurately ripped
02 [ecb15af8|eb7cd90d] (0+1/1) Accurately ripped
03 [9bed90e7|909b3c2b] (0+1/1) Accurately ripped
04 [cee389ca|340630ec] (0+1/1) Accurately ripped
05 [8134ad3d|4ed9018a] (0+1/1) Accurately ripped
06 [5b34abe5|77410fa3] (0+1/1) Accurately ripped
07 [3ba2dc86|cb6e8cb7] (0+1/2) Accurately ripped

Track Peak [ CRC32 ] [W/O NULL] [ LOG ]
– 96,6 [CFD96BF1] [B5FFB4F1] CRC32
01 96,6 [51C7795D] [72D8679C]
02 96,6 [E2EA2411] [83A75CF5]
03 96,6 [B6368D58] [118A9E12]
04 96,6 [05B17E75] [2EC3C62F]
05 96,6 [845BC59F] [BAAD1205]
06 96,6 [AA1689AD] [58ADC945]
07 96,6 [ED382E11] [9361211E]



All thanks go to wurensh



Download:
Salefiles: | |

Turbobit: | |