V.A. - Vajra (2006)


V.A. - Vajra (2006)
EAC Rip | FLAC (image+.cue+log) - 446 MB | MP3 CBR 320 kbps (LAME 3.93) - 160 MB | Covers - 60 MB
Genre: Dub, Downtempo, Ambient | RAR 3% Rec. | Label: Indica Music (INDICD003)

Vajra is the compilation from the Italian based label Indica Music. Compiled by Josko, this compilation features mostly globally well known artists (Gaudi, Cell, Tripswitch, Aes Dana and more). Trying to discover new directions in music and to spice up the monotonous new age style of today, this compilation is a sexy stew of electronic and ancient world influences, spontaneously blending different styles of ambient, downtempo and dub. Vajra is a must have for ambient lovers, chillers and lazy dancers, this compilation will surely be the perfect answer for all those selective listeners.
Tracklist:
01. Gaudi - Lunar Patchouli
02. Cell - Idea Spiral
03. Tripswitch - Cumulus
04. Mauxuam - Sounds A Lot
05. Aes Dana - Opalin (Sonica Edit)
06. Scene - Piano Suite
07. Trotter - Clean That Too
08. Tikal - La Bonne Étoile
09. Chilled C'Quence - Pardesi

Total time: 01:08:04

Exact Audio Copy V0.99 prebeta 5 from 4. May 2009

EAC extraction logfile from 4. November 2010, 18:21

Various Artists / Vajra

Used drive : Optiarc DVD RW AD-7200S Adapter: 1 ID: 0

Read mode : Secure
Utilize accurate stream : Yes
Defeat audio cache : Yes
Make use of C2 pointers : No

Read offset correction : 48
Overread into Lead-In and Lead-Out : No
Fill up missing offset samples with silence : Yes
Delete leading and trailing silent blocks : No
Null samples used in CRC calculations : Yes
Used interface : Native Win32 interface for Win NT & 2000

Used output format : User Defined Encoder
Selected bitrate : 1024 kBit/s
Quality : High
Add ID3 tag : No
Command line compressor : C:Program FilesExact Audio CopyFLACFLAC.EXE
Additional command line options : -8 -V %s


TOC of the extracted CD

Track | Start | Length | Start sector | End sector
––––––––––––––––––––––––––––-
1 | 0:00.00 | 5:13.52 | 0 | 23526
2 | 5:13.52 | 7:11.62 | 23527 | 55913
3 | 12:25.39 | 9:54.14 | 55914 | 100477
4 | 22:19.53 | 7:52.29 | 100478 | 135906
5 | 30:12.07 | 8:00.62 | 135907 | 171968
6 | 38:12.69 | 6:35.36 | 171969 | 201629
7 | 44:48.30 | 6:25.03 | 201630 | 230507
8 | 51:13.33 | 8:18.53 | 230508 | 267910
9 | 59:32.11 | 8:31.64 | 267911 | 306299


Range status and errors

Selected range

Filename D:Various Artists - Vajra.wav

Peak level 94.4 %
Range quality 100.0 %
Test CRC CD2CDD72
Copy CRC CD2CDD72
Copy OK

No errors occurred


AccurateRip summary

Track 1 accurately ripped (confidence 2) [79135FE4]
Track 2 accurately ripped (confidence 2) [5DA70874]
Track 3 accurately ripped (confidence 2) [673EA6A0]
Track 4 accurately ripped (confidence 2) [A2F50CBD]
Track 5 accurately ripped (confidence 2) [C013A1C4]
Track 6 accurately ripped (confidence 2) [63DB4062]
Track 7 accurately ripped (confidence 2) [6E89AAD2]
Track 8 accurately ripped (confidence 2) [4B95FC6E]
Track 9 accurately ripped (confidence 2) [4EDF819D]

All tracks accurately ripped

End of status report

[CUETools log; Date: 20.11.2016 17:08:48; Version: 2.1.4]
[CTDB TOCID: SWAqyBa4aXAztyhmdqBnb0H7dN0-] found.
Track | CTDB Status
1 | (2/2) Accurately ripped
2 | (2/2) Accurately ripped
3 | (2/2) Accurately ripped
4 | (1/2) Accurately ripped, or (1/2) differs in 1 samples @03:46:62
5 | (2/2) Accurately ripped
6 | (2/2) Accurately ripped
7 | (2/2) Accurately ripped
8 | (2/2) Accurately ripped
9 | (2/2) Accurately ripped
[AccurateRip ID: 0016cc80-00a8ba43-780ff409] found.
Track [ CRC | V2 ] Status
01 [79135fe4|12e0989b] (3+2/5) Accurately ripped
02 [5da70874|8bfc353c] (3+2/5) Accurately ripped
03 [673ea6a0|79960cc7] (3+2/5) Accurately ripped
04 [a2f50cbd|0e951b8d] (3+2/5) Accurately ripped
05 [c013a1c4|5d95ad6e] (3+2/5) Accurately ripped
06 [63db4062|08279b3d] (3+2/5) Accurately ripped
07 [6e89aad2|74115eaf] (3+2/5) Accurately ripped
08 [4b95fc6e|2151dd2d] (3+2/5) Accurately ripped
09 [4edf819d|8c0e0cd9] (3+2/5) Accurately ripped

Track Peak [ CRC32 ] [W/O NULL] [ LOG ]
– 94,4 [CD2CDD72] [2B49675E] CRC32
01 91,6 [6151F748] [E53DA3A9]
02 91,7 [78775544] [1C476E9E]
03 92,3 [BAA85B59] [B9E2C4C1]
04 91,8 [06FFB789] [D00A7782]
05 94,3 [B11C8618] [9084164F]
06 91,7 [EFF69C21] [56892F54]
07 94,4 [7EA18C73] [D342B04D]
08 94,4 [C411C71D] [C20A7C9B]
09 93,5 [D9280ABB] [6CB65502]

Thanks to vostrik

LOSSLESS:

_______________

MP3 320 kbps:

_______________

Covers: