Vladimir Horowitz - Horowitz In London (1984) {RCA Red Seal}


Vladimir Horowitz - Horowitz In London (1984) {RCA Red Seal}
EAC Rip | FLAC with CUE and log | scans | 155 mb
MP3 CBR 320kbps | RAR | 105 mb
Genre: classical

Horowitz In London is the 1984 album by pianist Vladimir Horowitz. This was released by RCA Red Seal.


1. God Save The Queen (1:41)

Frédéric Chopin
2. Polonaise-Fantasie, Op. 61 (13:03)
3. Ballade No. 1, Op. 23 (9:27)

Robert Schumann: Scenes From Childhood, Op. 15 (Kinderszenen)
4. Of Strange Lands And People (1:31)
5. Curious Story (1:13)
6. Blindman's Buff (0:36)
7. Pleading Child (0:54)
8. Happy Enough (0:41)
9. Important Event (0:53)
10. Reverie (Träumerei) (2:49)
11. By The Fireside (1:20)
12. Rocking-Horse Knight (0:39)
13. Almost Too Serious (1:43)
14. Frightening (1:44)
15. Child Falling Asleep (1:45)
16. The Poet Speaks (1:59)

Alexander Scriabin
17. Etude in D-sharp minor, Op. 8, No. 12 (3:07)

Produced by John Pfeiffer
Post-Production Engineer: Edwin Begley
Location Engineer: Brian Roberts
Editors: James Wolvington & Thomas MacCluskey

Exact Audio Copy V1.1 from 23. June 2015

EAC extraction logfile from 12. November 2016, 13:44

Vladimir Horowitz / Horowitz In London

Used drive : TEAC DVD-ROM DV-28SW Adapter: 1 ID: 0

Read mode : Secure
Utilize accurate stream : Yes
Defeat audio cache : Yes
Make use of C2 pointers : No

Read offset correction : 6
Overread into Lead-In and Lead-Out : No
Fill up missing offset samples with silence : Yes
Delete leading and trailing silent blocks : No
Null samples used in CRC calculations : Yes
Used interface : Native Win32 interface for Win NT & 2000
Gap handling : Appended to previous track

Used output format : Internal WAV Routines
Sample format : 44.100 Hz; 16 Bit; Stereo


TOC of the extracted CD

Track | Start | Length | Start sector | End sector
––––––––––––––––––––––––––––-
1 | 0:00.00 | 1:46.63 | 0 | 8012
2 | 1:46.63 | 13:09.62 | 8013 | 67249
3 | 14:56.50 | 9:31.63 | 67250 | 110137
4 | 24:28.38 | 1:31.35 | 110138 | 116997
5 | 25:59.73 | 1:12.55 | 116998 | 122452
6 | 27:12.53 | 0:36.12 | 122453 | 125164
7 | 27:48.65 | 0:53.53 | 125165 | 129192
8 | 28:42.43 | 0:41.00 | 129193 | 132267
9 | 29:23.43 | 0:52.30 | 132268 | 136197
10 | 30:15.73 | 2:49.07 | 136198 | 148879
11 | 33:05.05 | 1:19.30 | 148880 | 154834
12 | 34:24.35 | 0:38.65 | 154835 | 157749
13 | 35:03.25 | 1:42.68 | 157750 | 165467
14 | 36:46.18 | 1:43.25 | 165468 | 173217
15 | 38:29.43 | 1:44.00 | 173218 | 181017
16 | 40:13.43 | 2:03.32 | 181018 | 190274
17 | 42:17.00 | 3:08.30 | 190275 | 204404


Track 1

Filename C:My DocumentsMy FLACVladimir Horowitz - Horowitz In London (1984) [FLAC] {RCA Red Seal}1 - God Save The Queen.wav

Pre-gap length 0:00:02.00

Peak level 90.4 %
Extraction speed 2.1 X
Track quality 100.0 %
Test CRC 2E2B339E
Copy CRC 2E2B339E
Accurately ripped (confidence 5) [933E324A] (AR v2)
Copy OK

Track 2

Filename C:My DocumentsMy FLACVladimir Horowitz - Horowitz In London (1984) [FLAC] {RCA Red Seal}2 - Polonaise-Fantaisie, op. 61.wav

Pre-gap length 0:00:04.25

Peak level 73.3 %
Extraction speed 3.3 X
Track quality 99.9 %
Test CRC 086424BE
Copy CRC 086424BE
Accurately ripped (confidence 5) [25DCC097] (AR v2)
Copy OK

Track 3

Filename C:My DocumentsMy FLACVladimir Horowitz - Horowitz In London (1984) [FLAC] {RCA Red Seal}3 - Ballade no. 1 in g Minor, op.23.wav

Pre-gap length 0:00:05.50

Peak level 74.2 %
Extraction speed 3.9 X
Track quality 100.0 %
Test CRC C738CE22
Copy CRC C738CE22
Accurately ripped (confidence 5) [4FBE053D] (AR v2)
Copy OK

Track 4

Filename C:My DocumentsMy FLACVladimir Horowitz - Horowitz In London (1984) [FLAC] {RCA Red Seal}4 - Scenes From Childhood, op.15, of Strange Lands And People.wav

Pre-gap length 0:00:04.38

Peak level 8.9 %
Extraction speed 2.8 X
Track quality 100.0 %
Test CRC 1862345F
Copy CRC 1862345F
Accurately ripped (confidence 5) [D95815BF] (AR v2)
Copy OK

Track 5

Filename C:My DocumentsMy FLACVladimir Horowitz - Horowitz In London (1984) [FLAC] {RCA Red Seal}5 - Scenes From Childhood, op.15, Curious Story.wav

Peak level 22.7 %
Extraction speed 2.2 X
Track quality 99.8 %
Test CRC C588CC49
Copy CRC C588CC49
Accurately ripped (confidence 5) [0EA62CE0] (AR v2)
Copy OK

Track 6

Filename C:My DocumentsMy FLACVladimir Horowitz - Horowitz In London (1984) [FLAC] {RCA Red Seal}6 - Scenes From Childhood, op.15, Blindman's Buff.wav

Peak level 24.3 %
Extraction speed 1.4 X
Track quality 99.7 %
Test CRC B11FBFF0
Copy CRC B11FBFF0
Accurately ripped (confidence 5) [E3C8EA88] (AR v2)
Copy OK

Track 7

Filename C:My DocumentsMy FLACVladimir Horowitz - Horowitz In London (1984) [FLAC] {RCA Red Seal}7 - Scenes From Childhood, op.15, Pleading Child.wav

Peak level 13.2 %
Extraction speed 2.8 X
Track quality 100.0 %
Test CRC 962069EC
Copy CRC 962069EC
Accurately ripped (confidence 5) [4F818A14] (AR v2)
Copy OK

Track 8

Filename C:My DocumentsMy FLACVladimir Horowitz - Horowitz In London (1984) [FLAC] {RCA Red Seal}8 - Scenes From Childhood, op.15, Happy Enough.wav

Peak level 24.8 %
Extraction speed 2.5 X
Track quality 100.0 %
Test CRC 82601C97
Copy CRC 82601C97
Accurately ripped (confidence 5) [2A0BEBC9] (AR v2)
Copy OK

Track 9

Filename C:My DocumentsMy FLACVladimir Horowitz - Horowitz In London (1984) [FLAC] {RCA Red Seal}9 - Scenes From Childhood, op.15, Important Event.wav

Peak level 47.3 %
Extraction speed 2.9 X
Track quality 100.0 %
Test CRC C3A65CEF
Copy CRC C3A65CEF
Accurately ripped (confidence 5) [9DE038D2] (AR v2)
Copy OK

Track 10

Filename C:My DocumentsMy FLACVladimir Horowitz - Horowitz In London (1984) [FLAC] {RCA Red Seal}10 - Scenes From Childhood, op.15, Reverie (Traumerei).wav

Peak level 11.4 %
Extraction speed 4.2 X
Track quality 100.0 %
Test CRC E073B1C8
Copy CRC E073B1C8
Accurately ripped (confidence 5) [8E5CA257] (AR v2)
Copy OK

Track 11

Filename C:My DocumentsMy FLACVladimir Horowitz - Horowitz In London (1984) [FLAC] {RCA Red Seal}11 - Scenes From Childhood, op.15, by The Fireside.wav

Peak level 26.3 %
Extraction speed 3.5 X
Track quality 100.0 %
Test CRC 202135B7
Copy CRC 202135B7
Accurately ripped (confidence 5) [1E1C8EFF] (AR v2)
Copy OK

Track 12

Filename C:My DocumentsMy FLACVladimir Horowitz - Horowitz In London (1984) [FLAC] {RCA Red Seal}12 - Scenes From Childhood, op.15, Rocking-Horse Knight.wav

Peak level 53.3 %
Extraction speed 1.6 X
Track quality 99.7 %
Test CRC AEDA90AB
Copy CRC AEDA90AB
Accurately ripped (confidence 5) [B19A4DB1] (AR v2)
Copy OK

Track 13

Filename C:My DocumentsMy FLACVladimir Horowitz - Horowitz In London (1984) [FLAC] {RCA Red Seal}13 - Scenes From Childhood, op.15, Almost Too Serious.wav

Peak level 15.7 %
Extraction speed 2.8 X
Track quality 99.8 %
Test CRC 9CEDFDEF
Copy CRC 9CEDFDEF
Accurately ripped (confidence 5) [98B4CAC8] (AR v2)
Copy OK

Track 14

Filename C:My DocumentsMy FLACVladimir Horowitz - Horowitz In London (1984) [FLAC] {RCA Red Seal}14 - Scenes From Childhood, op.15, Frightening.wav

Peak level 40.5 %
Extraction speed 3.9 X
Track quality 100.0 %
Test CRC 56529AF0
Copy CRC 56529AF0
Accurately ripped (confidence 5) [4BDFEF7C] (AR v2)
Copy OK

Track 15

Filename C:My DocumentsMy FLACVladimir Horowitz - Horowitz In London (1984) [FLAC] {RCA Red Seal}15 - Scenes From Childhood, op.15, Child Falling Asleep.wav

Peak level 14.4 %
Extraction speed 4.0 X
Track quality 100.0 %
Test CRC A061F706
Copy CRC A061F706
Accurately ripped (confidence 5) [DAC2EAA2] (AR v2)
Copy OK

Track 16

Filename C:My DocumentsMy FLACVladimir Horowitz - Horowitz In London (1984) [FLAC] {RCA Red Seal}16 - Scenes From Childhood, op.15, The Poet Speaks.wav

Peak level 22.0 %
Extraction speed 4.2 X
Track quality 100.0 %
Test CRC 0AAA17A3
Copy CRC 0AAA17A3
Accurately ripped (confidence 5) [7C5E32D3] (AR v2)
Copy OK

Track 17

Filename C:My DocumentsMy FLACVladimir Horowitz - Horowitz In London (1984) [FLAC] {RCA Red Seal}17 - Etude in d-Sharp Minor, op.8, no. 12.wav

Pre-gap length 0:00:03.62

Peak level 86.9 %
Extraction speed 4.7 X
Track quality 100.0 %
Test CRC F3BF2A2A
Copy CRC F3BF2A2A
Accurately ripped (confidence 5) [E0C147DD] (AR v2)
Copy OK


All tracks accurately ripped

No errors occurred

End of status report

–– CUETools DB Plugin V2.1.6

[CTDB TOCID: QL3Y17kKhqUo74hVehOv61u2Noc-] found
Submit result: QL3Y17kKhqUo74hVehOv61u2Noc- has been confirmed
Track | CTDB Status
1 | ( 5/12) Accurately ripped
2 | ( 5/12) Accurately ripped
3 | ( 5/12) Accurately ripped
4 | ( 5/12) Accurately ripped
5 | (12/12) Accurately ripped
6 | (12/12) Accurately ripped
7 | (12/12) Accurately ripped
8 | (12/12) Accurately ripped
9 | (12/12) Accurately ripped
10 | (12/12) Accurately ripped
11 | (12/12) Accurately ripped
12 | (12/12) Accurately ripped
13 | (12/12) Accurately ripped
14 | (12/12) Accurately ripped
15 | (12/12) Accurately ripped
16 | ( 5/12) Accurately ripped
17 | ( 5/12) Accurately ripped


==== Log checksum E484435B83764B9159553567F199A9C4E4759A38F8B33794FB0A782D085DD395 ====


http://www.nitroflare.com/view/4218936C0BB01E1/VL4DlMlRH0R0WlTZ-HlL_lgBAFL4C.rar
http://www.nitroflare.com/view/B662619A840D620/VL4DlMlRH0R0WlTZ-HlL_lgBAMPE.rar