John O'Connor - Beethoven: Piano Sonatas Volume I (1986) {Telarc}


John O'Connor - Beethoven: Piano Sonatas Volume I (1986) {Telarc}
EAC Rip | FLAC with CUE and log | scans | 138 mb
MP3 CBR 320kbps | RAR | 133 mb
Genre: classical

Beethoven: Piano Sonatas Volume I is the 1986 album by pianist John O'Connor. This was released on the Telarc label.


Sonata No. 8 in C minor, Op. 13 "Pathetique"
1. I. Grave - Allegro di molto e con brio
2. II. Adagio cantabile
3. III. Rondo: Allegro

Sonata No. 14 in C-sharp minor, Op. 27/2 "Moonlight"
4. I. Adagio sostenuto
5. II. Allegretto
6. III. Presto

Sonata No. 23 in F minor, Op. 57 "Apassionata"
7. I. Allegro assai
8. II. Andante con moto
9. III. Allegro ma non troppo

Produced by James Mallinson
Recording engineer: Jack Denner
Executive Producer: Robert Woods
Technical Assistance: Tony Faulkner, John Newton
Editors: Ben Turner, Rosalind Ilett
Production Assistance: Elaine Martone

Recorded in St. Barnabas Church, London on 15-17 May, 1985

Exact Audio Copy V1.1 from 23. June 2015

EAC extraction logfile from 12. November 2016, 12:35

John O'Connor / Beethoven: Piano Sonatas, Volume I

Used drive : TEAC DVD-ROM DV-28SW Adapter: 1 ID: 0

Read mode : Secure
Utilize accurate stream : Yes
Defeat audio cache : Yes
Make use of C2 pointers : No

Read offset correction : 6
Overread into Lead-In and Lead-Out : No
Fill up missing offset samples with silence : Yes
Delete leading and trailing silent blocks : No
Null samples used in CRC calculations : Yes
Used interface : Native Win32 interface for Win NT & 2000
Gap handling : Appended to previous track

Used output format : Internal WAV Routines
Sample format : 44.100 Hz; 16 Bit; Stereo


TOC of the extracted CD

Track | Start | Length | Start sector | End sector
––––––––––––––––––––––––––––-
1 | 0:00.00 | 8:40.57 | 0 | 39056
2 | 8:40.57 | 4:49.68 | 39057 | 60799
3 | 13:30.50 | 4:24.37 | 60800 | 80636
4 | 17:55.12 | 5:45.65 | 80637 | 106576
5 | 23:41.02 | 2:17.45 | 106577 | 116896
6 | 25:58.47 | 7:11.58 | 116897 | 149279
7 | 33:10.30 | 9:51.02 | 149280 | 193606
8 | 43:01.32 | 6:20.38 | 193607 | 222144
9 | 49:21.70 | 7:47.05 | 222145 | 257174


Track 1

Filename C:My DocumentsMy FLACJohn O'Connor - Beethoven, Piano Sonatas Volume I (1986) [FLAC] {Telarc}1 - Sonata No.8 in C minor, Op.13 - 'Pathetique' - Grave - Allegro di molto e con brio.wav

Pre-gap length 0:00:02.00

Peak level 72.5 %
Extraction speed 3.1 X
Track quality 100.0 %
Test CRC 37F4CE3F
Copy CRC 37F4CE3F
Accurately ripped (confidence 12) [4B24FA53] (AR v2)
Copy OK

Track 2

Filename C:My DocumentsMy FLACJohn O'Connor - Beethoven, Piano Sonatas Volume I (1986) [FLAC] {Telarc}2 - Sonata No.8 in C minor, Op.13 - 'Pathetique' - Adagio cantabile.wav

Pre-gap length 0:00:03.57

Peak level 20.6 %
Extraction speed 2.9 X
Track quality 100.0 %
Test CRC EAE62DA3
Copy CRC EAE62DA3
Accurately ripped (confidence 12) [7AAF8C0A] (AR v2)
Copy OK

Track 3

Filename C:My DocumentsMy FLACJohn O'Connor - Beethoven, Piano Sonatas Volume I (1986) [FLAC] {Telarc}3 - Sonata No.8 in C minor, Op.13 - 'Pathetique' - Rondo - Allegro.wav

Pre-gap length 0:00:01.50

Peak level 55.1 %
Extraction speed 3.7 X
Track quality 100.0 %
Test CRC FC547D46
Copy CRC FC547D46
Accurately ripped (confidence 12) [BCD34564] (AR v2)
Copy OK

Track 4

Filename C:My DocumentsMy FLACJohn O'Connor - Beethoven, Piano Sonatas Volume I (1986) [FLAC] {Telarc}4 - Sonata No.14 in C sharp minor, Op.27 - 2 - 'Moonlight' - Adagio sostenuto.wav

Pre-gap length 0:00:04.12

Peak level 7.4 %
Extraction speed 4.0 X
Track quality 100.0 %
Test CRC 0C186C4C
Copy CRC 0C186C4C
Accurately ripped (confidence 12) [8A6DEF88] (AR v2)
Copy OK

Track 5

Filename C:My DocumentsMy FLACJohn O'Connor - Beethoven, Piano Sonatas Volume I (1986) [FLAC] {Telarc}5 - Sonata No.14 in C sharp minor, Op.27 - 2 - 'Moonlight' - Allegretto.wav

Peak level 20.5 %
Extraction speed 3.5 X
Track quality 100.0 %
Test CRC 894D0AFD
Copy CRC 894D0AFD
Accurately ripped (confidence 12) [F3C5B5DC] (AR v2)
Copy OK

Track 6

Filename C:My DocumentsMy FLACJohn O'Connor - Beethoven, Piano Sonatas Volume I (1986) [FLAC] {Telarc}6 - Sonata No.14 in C sharp minor, Op.27 - 2 - 'Moonlight' - Presto.wav

Pre-gap length 0:00:02.47

Peak level 64.6 %
Extraction speed 4.3 X
Track quality 100.0 %
Test CRC 43C552BA
Copy CRC 43C552BA
Accurately ripped (confidence 12) [ED17B799] (AR v2)
Copy OK

Track 7

Filename C:My DocumentsMy FLACJohn O'Connor - Beethoven, Piano Sonatas Volume I (1986) [FLAC] {Telarc}7 - Sonata No.23 in F minor, Op.57 - 'Appassionata' - Allegroassai.wav

Pre-gap length 0:00:05.30

Peak level 55.4 %
Extraction speed 4.2 X
Track quality 100.0 %
Test CRC D4DBB3F9
Copy CRC D4DBB3F9
Accurately ripped (confidence 12) [777559F2] (AR v2)
Copy OK

Track 8

Filename C:My DocumentsMy FLACJohn O'Connor - Beethoven, Piano Sonatas Volume I (1986) [FLAC] {Telarc}8 - Sonata No.23 in F minor, Op.57 - 'Appassionata' - Andante con moto.wav

Pre-gap length 0:00:04.05

Peak level 42.5 %
Extraction speed 4.4 X
Track quality 100.0 %
Test CRC 2DF4CE1D
Copy CRC 2DF4CE1D
Accurately ripped (confidence 12) [F1298059] (AR v2)
Copy OK

Track 9

Filename C:My DocumentsMy FLACJohn O'Connor - Beethoven, Piano Sonatas Volume I (1986) [FLAC] {Telarc}9 - Sonata No.23 in F minor, Op.57 - 'Appassionata' - Allegro ma non troppo.wav

Peak level 68.4 %
Extraction speed 4.4 X
Track quality 100.0 %
Test CRC 1E121DCD
Copy CRC 1E121DCD
Accurately ripped (confidence 12) [5E809AE1] (AR v2)
Copy OK


All tracks accurately ripped

No errors occurred

End of status report

–– CUETools DB Plugin V2.1.6

[CTDB TOCID: wySefnxykkDLwmK0Vqg49jwN9eU-] found
Submit result: wySefnxykkDLwmK0Vqg49jwN9eU- has been confirmed
Track | CTDB Status
1 | (56/57) Accurately ripped
2 | (56/57) Accurately ripped
3 | (56/57) Accurately ripped
4 | (56/57) Accurately ripped
5 | (56/57) Accurately ripped
6 | (56/57) Accurately ripped
7 | (55/57) Accurately ripped
8 | (56/57) Accurately ripped
9 | (56/57) Accurately ripped


==== Log checksum 2C4DF607C4D99CEC30CB1612A6F639EDA92A97725A892073FEA2A505AA425859 ====


http://www.nitroflare.com/view/5AE64B6C944364E/J0HN0C0NN0R-8P5Vl_lgBbFL4C.rar
http://www.nitroflare.com/view/E9EB776FCC1E6A1/J0HN0C0NN0R-8P5Vl_lgBbMPE.rar