Chen Sa - Memories Lost (2015)


Chen Sa - Memories Lost (2015)
EAC Rip | Flac (Image + cue + log) | 291 MB | 1 CD | Full Scans
Genre: Classical | Label: Bis | Catalog Number: 1974

The Chinese pianist Chen Sa has received much acclaim for her interpretations of composers such as Chopin, Rachmaninov and Ravel, but on the present disc she makes something of a return to her roots, in a (mostly) Chinese programme of solo and concertante works.
In the two concertos, Chen Sa receives the eminent support of the Taipei Chinese Orchestra under its chief conductor Chung Yiu-Kwong. This team has appeared on four previous releases from BIS, and has received worldwide critical acclaim for their performances, 'evoking delicate playfulness, high drama, or the tranquillity of a misty Chinese valley with equal atmosphere' (Classic FM Magazine) and 'producing a rich multihued soundscape, a vibrant rhythmic drive, and spectacular ensemble virtuosity' (American Record Guide).

Composer:  Fazil Say,  Hsiao Tyzen,  Wang Xilin,  Julian Yu,   … 
Performer:  Sa Chen
Conductor:  Yiu-Kwong Chung
Orchestra/Ensemble:  Taipei Chinese Orchestra

Tracklisting:

Fazil Say (b. 1970)
arr. Chen Mingchi
[1]–[4] Silence of Anatolia (Piano Concerto No. 3), Op. 11

Hsiao Tyzen (b. 1938)
[5] Farewell Étude, Op. 55

Yu Julian (b. 1957)
[6] Impromptu, Op. 9

Chen Qigang (b. 1951)
[7] Instants d’un opéra de Pékin (2004 version)

Wang Xiaohan (b. 1980)
[8] A song in the childhood from ‘A Lost Diary’

Hsiao Tyzen
[9] Memory (No. 2 of ‘Memories of Home’, Op. 49)

Wang Xilin (b. 1937)
arr. Simon Kong Su Leong
[10]–[12] Concerto for Piano and Orchestra, Op. 56

Exact Audio Copy V1.1 from 23. June 2015

EAC extraction logfile from 18. December 2015, 2:03

Chen Sa, Taipei Chinese Orchestra, Chung Yiu-Kwong / Memories Lost

Used drive : HL-DT-STDVDRAM GU70N Adapter: 1 ID: 0

Read mode : Secure
Utilize accurate stream : Yes
Defeat audio cache : Yes
Make use of C2 pointers : No

Read offset correction : 48
Overread into Lead-In and Lead-Out : No
Fill up missing offset samples with silence : Yes
Delete leading and trailing silent blocks : No
Null samples used in CRC calculations : Yes
Used interface : Native Win32 interface for Win NT & 2000

Used output format : User Defined Encoder
Selected bitrate : 128 kBit/s
Quality : High
Add ID3 tag : No
Command line compressor : C:Program Files (x86)Exact Audio CopyFlacflac.exe
Additional command line options : -V -8 -T "Date=%year%" -T "Genre=%genre%" %source%

TOC of the extracted CD

Track | Start | Length | Start sector | End sector
––––––––––––––––––––––––––––-
1 | 0:00.00 | 8:14.33 | 0 | 37082
2 | 8:14.33 | 4:33.03 | 37083 | 57560
3 | 12:47.36 | 3:42.04 | 57561 | 74214
4 | 16:29.40 | 5:30.16 | 74215 | 98980
5 | 21:59.56 | 6:27.27 | 98981 | 128032
6 | 28:27.08 | 3:26.40 | 128033 | 143522
7 | 31:53.48 | 11:29.12 | 143523 | 195209
8 | 43:22.60 | 4:30.16 | 195210 | 215475
9 | 47:53.01 | 3:09.06 | 215476 | 229656
10 | 51:02.07 | 8:41.73 | 229657 | 268804
11 | 59:44.05 | 9:18.21 | 268805 | 310675
12 | 69:02.26 | 12:52.50 | 310676 | 368625

Range status and errors

Selected range

Filename C:tempBIS-SACD-1974 - Memories LostMemories Lost.wav

Peak level 97.3 %
Extraction speed 2.3 X
Range quality 100.0 %
Test CRC D5849B53
Copy CRC D5849B53
Copy OK

No errors occurred

AccurateRip summary

Track 1 not present in database
Track 2 not present in database
Track 3 not present in database
Track 4 not present in database
Track 5 not present in database
Track 6 not present in database
Track 7 not present in database
Track 8 not present in database
Track 9 not present in database
Track 10 not present in database
Track 11 not present in database
Track 12 not present in database

None of the tracks are present in the AccurateRip database

End of status report

==== Log checksum 8236077393E2516827E1D174CA8AB9BB2D34C7778379DCD6D6E3AB854051249B ====



Thanks to the original releaser